Help - Search - Members - Calendar
Full Version: Senmuth - Сihuatlamacazque (2017)
Metal Area - Extreme Music Portal > Releases Area / Релизы > New Releases > Unformat R:
Senmuth


*Artist: Senmuth
*Album: Сihuatlamacazque
*Year: 2017
*Genre: Ethnic Metal
*Country: Russian Federation
*Format: mp3@CBR320kbps
*Size: 95MB

Tracklist:
1. Tlachinolli Huecapan
2. Ohuih Ixtab
3. Ezo Tetlaxintli
4. Tlayelquiahui
5. Netotiliztli Tlatlahuic Ixmimiquiliztl
6. Atoyaatl
7. Ahmiquizmauhqui
******************************
Total playing time: 31:52

Technical info

Input File: 05 Netotiliztli Tlatlahuic Ixmimiquiliztl.mp3
Channels : 2
Sample Rate : 44100
Precision : 16-bit
Duration : 00:03:34.38 = 9454158 samples = 16078.5 CDDA sectors
File Size : 11.4M
Bit Rate : 427k
Sample Encoding: MPEG audio (layer I, II or III)
Comments :
Title=Netotiliztli Tlatlahuic Ixmimiquiliztl
Artist=Senmuth
Album=РЎihuatlamacazque
Tracknumber=05
Year=2017
Genre=Tribal industrial/progressive ethnic/ambient metal



[ Hidden Text ]
Aresson
Отлатикпак - это к этому же и Тламиктилцтли, я правильно понял?
vosmidesijatye
ЦИТАТА(Aresson @ Jan 15 2018, 22:47:15) *
Отлатикпак - это к этому же и Тламиктилцтли, я правильно понял?


Говорите по русски пожалуйста 1488.gif
aesteticvice
ЦИТАТА(vosmidesijatye @ Jan 15 2018, 18:48:20) *
Говорите по русски пожалуйста 1488.gif

абр-абр-абрвалг... пирамиду в печень еканый пердимонокль
Aresson
ЦИТАТА(aesteticvice @ 15th January 2018 - 21:52:42) *
зиккурат в печень еканый пертцикоатль

расово верный фикс
Senmuth
ЦИТАТА(Aresson @ 15th January 2018 - 23:47:15) *
Отлатикпак - это к этому же и Тламиктилцтли, я правильно понял?

Да)


A.L.Rapsod
Два альбома подряд прослушал. Мне понравилось.
Не знаю, почему не видят разность написанных альбомов.

Несомненно, есть изюминка.
Интересно слушать. Не скучно.

Спасибо.
Senmuth
ЦИТАТА
Несомненно, есть изюминка.
Интересно слушать. Не скучно.

Спасибо)
А еще есть третий альбом)
А еще пишу инкскую трилогию, она еще более мощная))
This is a "lo-fi" version of our main content. To view the full version with more information, formatting and images, please click here.
Invision Power Board © 2001-2019 Invision Power Services, Inc.