Help - Search - Members - Calendar
Full Version: Πлачь Ʒемля - Burzum [ep] (2017)
Metal Area - Extreme Music Portal > Releases Area / Релизы > New Releases > Unformat R:
vosmidesijatye


*Artist: Πлачь Ʒемля
*Album: Burzum [ep]
*Year: 2017
*Genre: Black Metal/Ambient/Electronic
*Country: Russian Federation
*Format: mp3@CBR320kbps
*Size: 17MB

Tracklist:
1. Black Spell Of Destruction (Burzum Cover) 04:24
2. Jesus Tod (Burzum Cover) 03:20
******************************
Total playing time: 7:44



Technical info

Input File: 01. Black Spell Of Destruction.mp3
Channels : 2
Sample Rate : 44100
Precision : 16-bit
Duration : 00:04:24.13 = 11647957 samples = 19809.5 CDDA sectors
File Size : 10.6M
Bit Rate : 320k
Sample Encoding: MPEG audio (layer I, II or III)
Comments :
Title=Black Spell Of Destruction
Artist=Πлачь Ʒемля
Album=Burzum
Tracknumber=01/02
Year=2017
Genre=Black Metal



[ Hidden Text ]
vosmidesijatye
@320

[ Hidden Text ]
mondblut
и давно вичуха форматом стала?
AlexCrazy
возникает только один вопрос - нахрена???
Oath19
Зашквар с одного только названия. 22.gif
Kwaad
Это какой-то копроопущенизм.
Aresson
ЦИТАТА(mondblut @ 16th January 2018 - 19:37:02) *
вичуха

шо це теке?
aesteticvice
ЦИТАТА(AlexCrazy @ Jan 16 2018, 16:52:45) *
возникает только один вопрос - нахрена???

пока до Jan 30 2018, 18:56:54
mondblut
ЦИТАТА(Aresson @ Jan 16 2018, 22:07:38) *
шо це теке?


готега для малолетних рейверш.
maxmagmas
ЦИТАТА(aesteticvice @ Jan 16 2018, 22:25:50) *
пока до Jan 30 2018, 18:56:54

Маловато. В прошлом году его хорошо на несколько месяцев отправили подумать, этого раба флуда.
This is a "lo-fi" version of our main content. To view the full version with more information, formatting and images, please click here.
Invision Power Board © 2001-2019 Invision Power Services, Inc.