Help - Search - Members - Calendar
Full Version: Carcosa - Another Second [ep] (2005)
Metal Area - Extreme Music Portal > Releases Area / Релизы > New Releases > Unformat R:
Borderline1991


*Artist: Carcosa
*Album: Another Second [ep]
*Year: 2005
*Genre: Alternative Metal
*Country: Finland
*Format: mp3@VBR250kbps
*Size: 29MB

Tracklist:
1. Trust 03:11
2. The Neverending 03:19
3. Vol 2. 02:56
4. Fox 03:57
5. Interference 02:58
******************************
Total playing time: 16:21

Technical info

Input File: 01-carcosa-trust-ser.mp3
Channels : 2
Sample Rate : 44100
Precision : 16-bit
Duration : 00:03:11.19 = 8431479 samples = 14339.2 CDDA sectors
File Size : 5.93M
Bit Rate : 248k
Sample Encoding: MPEG audio (layer I, II or III)
Comments :
Title=Trust
Artist=Carcosa
Album=Another Second EP
Tracknumber=1
Year=2005
Genre=Metal



[ Hidden Text ]
Xaradonth
Alternative a-la Guano Apes
This is a "lo-fi" version of our main content. To view the full version with more information, formatting and images, please click here.
Invision Power Board © 2001-2019 Invision Power Services, Inc.