Help - Search - Members - Calendar
Full Version: Atrium Carceri & Herbst9 - Ur Djupan Dal [collaboration] (2018)
Metal Area - Extreme Music Portal > Releases Area / Релизы > New Releases > Unformat R:
Haunting


*Artist: Atrium Carceri & Herbst9
*Album: Ur Djupan Dal [collaboration]
*Year: 2018
*Genre: Dark Ambient | Dark Ambient
*Country: Sweden | Germany
*Format: mp3@CBR320kbps
*Size: 126MB

Tracklist:
1. Mot Främmande Land 07:24
2. Sov Ej Hos Kvinna, Som Är Kunnig I Trolldom 05:26
3. Österländska Tempel 06:46
4. Ur Evighetens Pipa 05:38
5. Vida Jättars Väg 06:12
6. Blott Den Vet Som Vida Reser 06:16
7. Drakhuvud 05:39
8. Händer Skola Hålla Hårda Yxor 04:33
9. Den Döda Trollkvinnan 07:34
******************************
Total playing time: 55:28



Extended info
Ambient Veterans Atrium Carceri & Herbst9 team up on this mysterious album.
The harbor was humid and hot in this mysterious land, nothing like the frosty cold ports of home. Yellow smoke danced to the beat of the drum joined by hypnotic women. The crowd spiraled inward, dancing to far away bells and the murmur beneath the ground.
You awoke sweat clad in linen sheets, the naked woman passed a long pipe. The cherry sparked red like a dragons eye. Head leaned back against a soft pillow, body free falling from soothed skies. A thud as your body hit the ground on a pathway built by giants.

Chanting, ritual drumming and spoken word weave in and out of this album that pays tribute to the old ways.

2018. Cryo Chamber


Technical info

Input File: 02 - Sov Ej Hos Kvinna, Som ?r Kunnig I Trolldom.mp3
Channels : 2
Sample Rate : 44100
Precision : 16-bit
Duration : 00:05:26.04 = 14378408 samples = 24453.1 CDDA sectors
File Size : 13.0M
Bit Rate : 320k
Sample Encoding: MPEG audio (layer I, II or III)
Comments :
Title=Sov Ej Hos Kvinna, Som Г„r Kunnig I Trolldom
Artist=Atrium Carceri & Herbst9
Album=Ur Djupan Dal
Tracknumber=02
Year=2018



[ Hidden Text ]
garmonbozia
самое крутое и этого стилевого направления, зацепившее меня в прошлом году.
процент ухода в бессознательное просто зашкаливает(а меня редко что из подобного на самом деле затягивает)
Nemetsua
Re-upload please!
This is a "lo-fi" version of our main content. To view the full version with more information, formatting and images, please click here.
Invision Power Board © 2001-2019 Invision Power Services, Inc.