Help - Search - Members - Calendar
Full Version: The Poodles - Prisma (2018)
Metal Area - Extreme Music Portal > Releases Area / Релизы > New Releases > Unformat R:
Necrokilldozer


*Artist: The Poodles
*Album: Prisma
*Year: 2018
*Genre: Melodic Heavy Metal/Hard Rock
*Country: Sweden
*Format: mp3@CBR320kbps
*Size: 84MB

Tracklist:
1. Crazy Horses (The Osmond Brothers cover) 02:33
2. Maniac (From Flashdance cover) 04:20
3. Love is Gone (David Guetta cover) 03:09
4. It's No Good (Depeche Mode cover) 04:18
5. Don't You Worry Child (Swedish House Mafia cover) 03:37
6. Goodbye Yellow Brick Road (Elton John cover) 03:36
7. Call Me (Blondie cover) 03:10
8. Go Your Own Way (Fleetwood Mac cover) 03:23
9. Set Fire to the Rain (Adele cover) 04:03
10. Soldiers of Fortune * (Deep Purple cover) 03:33
******************************
Total playing time: 35:42



Extended info
Line - up:

Germain Leth - Bass (ex-Martin Knye-Magiar, ex-Ariadna Project, ex-Lörihen, ex-Watchmen)
Jakob Samuel - Vocals (ex-Blakk Totem, ex-Midnight Sun, ex-The Ring, Kryptonite, ex-Treasure Land, ex-Grand Slam, ex-Jekyll & Hyde, ex-Kreegah, ex-Punchline, ex-Talisman (Swe), ex-Yale Bate)
Christian Lundqvist - Drums
Henrik Bergqvist - Guitars (ex-Tiamat (live), ex-Southfork)



https://www.metal-archives.com/images/6/7/8/2/67826_photo.jpg?0740


Technical info

Input File: 06. Goodbye Yellow Brick Road.mp3
Channels : 2
Sample Rate : 48000
Precision : 16-bit
Duration : 00:03:36.22 = 10378512 samples ~ 16216.4 CDDA sectors
File Size : 8.65M
Bit Rate : 320k
Sample Encoding: MPEG audio (layer I, II or III)
Comments :
Title=Goodbye Yellow Brick Road
Artist=The Poodles
Album=Prisma
Tracknumber=6
Year=2018
Genre=Melodic Heavy Metal / Hard Rock



[ Hidden Text ]
Mplast
Молодцы шведы, как всегда впрочем. Отличный кавер альбом, подогнали песни под себя идеально. Даже аделевская Set Fire to the Rain кажется вполне могла встретиться на альбоме Пуделей, и выглядеть там абсолютно гармонично.
Бонус особенно согрел душу 20.gif
DenisKov
На раз послушать можно, а так ничего интересного.
This is a "lo-fi" version of our main content. To view the full version with more information, formatting and images, please click here.
Invision Power Board © 2001-2019 Invision Power Services, Inc.