Help - Search - Members - Calendar
Full Version: Long Distance Calling - Nighthawk [ep] (2014)
Metal Area - Extreme Music Portal > Releases Area / Релизы > New Releases > Unformat R:
vosmidesijatye


*Artist: Long Distance Calling
*Album: Nighthawk [ep]
*Year: 2014
*Genre: Post-Rock
*Country: Germany
*Format: mp3@CBR320kbps
*Size: 83MB

Tracklist:
01. NH 0223 02:25
02. NH 1100 11:02
03. NH 0549 05:52
04. NH 0318 03:21
05. NH 0217 02:20
06. NH 0712 07:15
07. NH 0423 04:23
******************************
Total playing time: 36:38



Technical info

Input File: 01. NH 0223.mp3
Channels : 2
Sample Rate : 44100
Precision : 16-bit
Duration : 00:02:25.26 = 6405834 samples = 10894.3 CDDA sectors
File Size : 5.90M
Bit Rate : 325k
Sample Encoding: MPEG audio (layer I, II or III)
Comments :
Title=NH 0223
Artist=Long Distance Calling
Album=Nighthawk
Tracknumber=01
Year=2014
Genre= Post Rock, Instrumental, Heavy Progressive



[ Hidden Text ]
vosmidesijatye
@320

[ Hidden Text ]
aesteticvice
пост-рок енто, ты бы хоть послушал, а не смотрел на теги последнего альбома 15.gif
vosmidesijatye
Я именно что послушал и здесь тяжелые партии присутствуют. 25.gif

aesteticvice
ЦИТАТА(vosmidesijatye @ Feb 1 2018, 11:49:19) *
Я именно что послушал и здесь тяжелые партии присутствуют. 25.gif

пилять они и у Radiohead с Muse в той же степени и примерно так же присутствуют
This is a "lo-fi" version of our main content. To view the full version with more information, formatting and images, please click here.
Invision Power Board © 2001-2019 Invision Power Services, Inc.