Help - Search - Members - Calendar
Full Version: Jethro Tull - Songs From The Wood (1977)
Metal Area - Extreme Music Portal > Releases Area / Релизы > New Releases > Unformat R:
vosmidesijatye


*Artist: Jethro Tull
*Album: Songs From The Wood
*Year: 1977
*Genre: Progressive Rock
*Country: United Kingdom
*Format: mp3@CBR320kbps
*Size: 95MB

Tracklist:
01. Songs From The Wood 04:53
02. Jack-In-The-Green 02:28
03. Cup Of Wonder 04:31
04. Hunting Girl 05:10
05. Ring Out, Solstice Bells 03:43
06. Velvet Green 06:01
07. The Whistler 03:31
08. Pibroch (Cap In Hand) 08:32
09. Fire At Midnight 02:27
******************************
Total playing time: 41:16



Technical info

Input File: 01. Songs From The Wood.mp3
Channels : 2
Sample Rate : 44100
Precision : 16-bit
Duration : 00:04:53.00 = 12921300 samples = 21975 CDDA sectors
File Size : 11.8M
Bit Rate : 321k
Sample Encoding: MPEG audio (layer I, II or III)
Comments :
Title=Songs From The Wood
Artist=Jethro Tull
Album=Songs From The Wood
Tracknumber=01/09
Year=1977
Genre=Progressive Rock



[ Hidden Text ]
vosmidesijatye
Очень приятный и мягкий альбом с уклоном в фолк. Один из любимых у него и лучших в 70-х для меня.

@320

[ Hidden Text ]
vosmidesijatye
Jack-In-The-Green pray.gif
This is a "lo-fi" version of our main content. To view the full version with more information, formatting and images, please click here.
Invision Power Board © 2001-2019 Invision Power Services, Inc.