Help - Search - Members - Calendar
Full Version: Jethro Tull - Heavy Horses (1978)
Metal Area - Extreme Music Portal > Releases Area / Релизы > New Releases > Unformat R:
vosmidesijatye


*Artist: Jethro Tull
*Album: Heavy Horses
*Year: 1978
*Genre: Progressive Rock
*Country: United Kingdom
*Format: mp3@CBR320kbps
*Size: 98MB

Tracklist:
01. ... And The Mouse Police Never Sleeps 03:11
02. Acres Wild 03:22
03. No Lullaby 07:53
04. Moths 03:25
05. Journeyman 03:54
06. Rover 04:13
07. One Brown Mouse 03:20
08. Heavy Horses 08:57
09. Weathercock 04:02
******************************
Total playing time: 42:17



Technical info

Input File: 08. Heavy Horses.mp3
Channels : 2
Sample Rate : 44100
Precision : 16-bit
Duration : 00:08:57.00 = 23681700 samples = 40275 CDDA sectors
File Size : 21.5M
Bit Rate : 320k
Sample Encoding: MPEG audio (layer I, II or III)
Comments :
Title=Heavy Horses
Artist=Jethro Tull
Album=Heavy Horses
Tracknumber=08/09
Year=1978
Genre=Progressive Rock



[ Hidden Text ]
vosmidesijatye
Крутой альбом. Сдвинулись в сторону с курса предыдущего, но не стали хуже.

@320

[ Hidden Text ]
vosmidesijatye
Heavy Horses pray.gif
Ghostb
Сильнейший альбом, мой фаворит у группы. Все четные треки в числе самых любимых в их дискографии.
vosmidesijatye
ЦИТАТА(Ghostb @ Feb 2 2018, 00:33:54) *
Сильнейший альбом, мой фаворит у группы. Все четные треки в числе самых любимых в их дискографии.


Купил когда то на диске. Альбом вроде и неплохой, но фолковый вектор хоть и хорош, но мне ближе прогрессивный все же.
Ghostb
ЦИТАТА(vosmidesijatye @ Feb 1 2018, 22:34:54) *
фолковый вектор хоть и хорош, но мне ближе прогрессивный все же

Ну, от прогрессива они здесь тоже далеко не отходили, достаточно аранжировки послушать.
vosmidesijatye
ЦИТАТА(Ghostb @ Feb 2 2018, 01:02:40) *
Ну, от прогрессива они здесь тоже далеко не отходили, достаточно аранжировки послушать.


Не буду спорить, но все же это не 72 и 73, доля фолканутости на этих двух релизах велика, что впрочем не делает их плохими.
This is a "lo-fi" version of our main content. To view the full version with more information, formatting and images, please click here.
Invision Power Board © 2001-2019 Invision Power Services, Inc.