Help - Search - Members - Calendar
Full Version: Jethro Tull - A Passion Play (1973)
Metal Area - Extreme Music Portal > Releases Area / Релизы > New Releases > Unformat R:
vosmidesijatye


*Artist: Jethro Tull
*Album: A Passion Play
*Year: 1973
*Genre: Progressive Rock
*Country: United Kingdom
*Format: mp3@CBR320kbps
*Size: 104MB

Tracklist:
01. A Passion Play Part I 21:34
02. A Passion Play Part II 23:30
******************************
Total playing time: 45:04



Technical info

Input File: 01. A Passion Play Part I.mp3
Channels : 2
Sample Rate : 44100
Precision : 16-bit
Duration : 00:21:34.00 = 57065400 samples = 97050 CDDA sectors
File Size : 51.8M
Bit Rate : 320k
Sample Encoding: MPEG audio (layer I, II or III)
Comments :
Title=A Passion Play Part I
Artist=Jethro Tull
Album=A Passion Play
Tracknumber=01/02
Year=1973
Genre=Progressive Rock



[ Hidden Text ]
vosmidesijatye
Второе грандиознейшее творение ДТ в 70-х. Самая настоящая концептуальная работа. Заковыристее и мудрёнее прошлого, но уровень по прежнему высочайший 20.gif

@320

[ Hidden Text ]
This is a "lo-fi" version of our main content. To view the full version with more information, formatting and images, please click here.
Invision Power Board © 2001-2019 Invision Power Services, Inc.