Help - Search - Members - Calendar
Full Version: Jethro Tull - Catfish Rising (1991)
Metal Area - Extreme Music Portal > Releases Area / Релизы > New Releases > Unformat R:
vosmidesijatye


*Artist: Jethro Tull
*Album: Catfish Rising
*Year: 1991
*Genre: Progressive Rock
*Country: United Kingdom
*Format: mp3@CBR320kbps
*Size: 138MB

Tracklist:
01. This Is Not Love 03:56
02. Occasional Demons 03:48
03. Roll Yer Own 04:25
04. Rocks On The Road 05:30
05. Sparrow On The Schoolyard Wall 05:21
06. Thinking Round Corners 03:31
07. Still Loving You Tonight 04:30
08. Doctor To My Disease 04:34
09. Like A Tall Thin Girl 03:36
10. White Innocence 07:43
11. Sleeping With The Dog 04:24
12. Gold-Tipped Boots, Black Jacket And Tie 03:38
13. When Jesus Came To Play 05:02
******************************
Total playing time: 59:58



Technical info

Input File: 01. This Is Not Love.mp3
Channels : 2
Sample Rate : 44100
Precision : 16-bit
Duration : 00:03:56.00 = 10407600 samples = 17700 CDDA sectors
File Size : 9.49M
Bit Rate : 322k
Sample Encoding: MPEG audio (layer I, II or III)
Comments :
Title=This Is Not Love
Artist=Jethro Tull
Album=Catfish Rising
Tracknumber=01/13
Year=1991
Genre=Progressive Rock



[ Hidden Text ]
vosmidesijatye
Отличный рок альбом. Хорошее продолжение прошлого. А Ян затейник, косит сами знаете под кого 1488.gif



@320

[ Hidden Text ]
vosmidesijatye
This Is Not Love pray.gif
Ghostb
ЦИТАТА(vosmidesijatye @ Feb 1 2018, 16:59:15) *
Ян затейник, косит сами знаете под кого 1488.gif

Шикарное видео, очень доставило 15.gif
vosmidesijatye
ЦИТАТА(Ghostb @ Feb 2 2018, 00:32:00) *
Шикарное видео, очень доставило 15.gif


Я как в первый раз увидел, нехило так прихренел, массовик затейник 1488.gif

Но получилось бомбезно, надо признать!
Ghostb
ЦИТАТА(vosmidesijatye @ Feb 1 2018, 22:33:53) *
Но получилось бомбезно, надо признать

Ага)
vosmidesijatye
Из 60-х для меня непревзойденен дебют.
Ghostb
ЦИТАТА(vosmidesijatye @ Feb 1 2018, 22:38:59) *
Из 60-х для меня непревзойденен дебют

Что странно, учитывая, что это самый не талловский альбом, приличную часть которого написали другие участники группы (дальше Андерсон все сочинял практически в одиночку). Да и Барра (который оказал немалое влияние на фирменный саунд Jethro Tull) тогда еще не было в составе.
vosmidesijatye
ЦИТАТА(Ghostb @ Feb 2 2018, 00:59:44) *
Что странно, учитывая, что это самый не талловский альбом, приличную часть которого написали другие участники группы (дальше Андерсон все сочинял практически в одиночку). Да и Барра (который оказал немалое влияние на фирменный саунд Jethro Tull) тогда еще не было в составе.


Но тем не менее как щас помню кассету затёр буквально до дыр. Дхарма, Солнце и Ферма просто шедевры pray.gif

Ливин ин зе паст не менее крута да
This is a "lo-fi" version of our main content. To view the full version with more information, formatting and images, please click here.
Invision Power Board © 2001-2019 Invision Power Services, Inc.