Help - Search - Members - Calendar
Full Version: Bronson A.D. - Warpath (2018)
Metal Area - Extreme Music Portal > Releases Area / Релизы > New Releases > Unformat R:
Samaritianin


*Artist: Bronson A.D.
*Album: Warpath
*Year: 2018
*Genre: Thrash/Groove Metal
*Country: Germany
*Format: mp3@CBR320kbps
*Size: 69MB

Tracklist:
01. Harbinger of Death (Intro)
02. After the Impact
03. Horrortrip
04. Nuclear Generation
05. Eat Shit
06. Warpath
07. For the Weak
08. New World Depression
09. Culture
10. Maikäfer flieg (Outro)
******************************
Total playing time: 32:16



Extended info


Technical info

Input File: 2 After the Impact.mp3
Channels : 2
Sample Rate : 44100
Precision : 16-bit
Duration : 00:03:06.90 = 8242290 samples = 14017.5 CDDA sectors
File Size : 7.64M
Bit Rate : 327k
Sample Encoding: MPEG audio (layer I, II or III)
Comments :
Title=After the Impact
Artist=Bronson A.D.
Album=Warpath
Tracknumber=2/10
Year=2018
Genre=Metalcore
Discnumber=1/1



[ Hidden Text ]
aesteticvice
Какой нафиг грув 1488.gif это классический Hardcore/Rapcore
Moonshtook
ЦИТАТА(aesteticvice @ Feb 1 2018, 19:39:39) *
Какой нафиг грув 1488.gif это классический Hardcore/Rapcore

все нормально! Тут иногда рэк под видом трэшу постят, и все довольны crazy.gif
Genuine Thrashiac
aesteticvice, под Madball, Biohazard, Bonesaw - норм качает banana.gif
This is a "lo-fi" version of our main content. To view the full version with more information, formatting and images, please click here.
Invision Power Board © 2001-2019 Invision Power Services, Inc.