Help - Search - Members - Calendar
Full Version: Frank Zappa - Apostrophe (') (1974)
Metal Area - Extreme Music Portal > Releases Area / Релизы > New Releases > Unformat R:
vosmidesijatye


*Artist: Frank Zappa
*Album: Apostrophe (')
*Year: 1974
*Genre: Experimental/Avantgarde Rock
*Country: United States
*Format: mp3@CBR320kbps
*Size: 74MB

Tracklist:
01. Don’t Eat the Yellow Snow 02:07
02. Nanook Rubs It 04:38
03. St. Alfonzo’s Pancake Breakfast 01:50
04. Father O’Blivion 02:18
05. Cosmik Debris 04:14
06. Excentrifugal Forz 01:33
07. Apostrophe 05:50
08. Uncle Remus 02:44
09. Stink-Foot 06:33
******************************
Total playing time: 31:47



Technical info

Input File: 01 - Don\'t Eat the Yellow Snow.mp3
Channels : 2
Sample Rate : 44100
Precision : 16-bit
Duration : 00:02:07.00 = 5600700 samples = 9525 CDDA sectors
File Size : 5.28M
Bit Rate : 333k
Sample Encoding: MPEG audio (layer I, II or III)
Comments :
Title=Don't Eat the Yellow Snow
Artist=Frank Zappa
Album=Apostrophe (')
Tracknumber=01
Year=1974
Genre=17



[ Hidden Text ]
vosmidesijatye
@320

[ Hidden Text ]
Ghostb
Крутой альбом.
babanguida
Portal's main influence metaler.gif
vosmidesijatye
ЦИТАТА(Ghostb @ Feb 2 2018, 00:23:47) *
Крутой альбом.


9.gif Распиши ка и по остальным, если есть что сказать! bye.gif

Frank Zappa - Hot Rats (1969)
Frank Zappa - Chunga's Revenge (1970)
Frank Zappa - Absolutely Free (1967)
Frank Zappa - Freak Out! (1966)
Frank Zappa - Weasels Ripped My Flesh (1970)
Frank Zappa - Burnt Weeny Sandwich (1970)
Frank Zappa - Cruising With Ruben & The Jets (1968)
Frank Zappa - We’re Only In It For The Money (1968)
Frank Zappa - Lumpy Gravy (1968)
Frank Zappa - Dance Me This (2015)
Frank Zappa - Mothermania (1969)
Frank Zappa - Fillmore East – June 1971 (1971)

Щас слушаю The Grand Wazoo - просто кайф, особенно Фрэнку удавались длинные инструментальные композиции без болтологии 9.gif Потихоньку буду заливать сюда его диско headcrab.png

ЦИТАТА(babanguida @ Feb 2 2018, 00:25:24) *
Portal's main influence metaler.gif


You mean australian Portal ?
babanguida
I am searching for Overnight Sensation album
vosmidesijatye
ЦИТАТА(babanguida @ Feb 2 2018, 00:31:36) *
I am searching for Overnight Sensation album


I can download it right now! 9.gif bye.gif
Ghostb
ЦИТАТА(vosmidesijatye @ Feb 1 2018, 22:30:48) *
Распиши ка и по остальным, если есть что сказать

Не, я не спец по дискографии, хотя слышал все альбомы. Но 90% надо переслушивать. С ходу точно могу выделить дебютник, "Hot Rats" (шедевр - не меньше), в середине 70-ых еще, помнится, было пару классных работ. Но уж больно много наклепал crazy.gif

ЦИТАТА(vosmidesijatye @ Feb 1 2018, 22:30:48) *
без болтологии

Да, вот это бы поменьше. Стеб - это, конечно, хорошо, но не в таком количестве же 21.gif А инструментал превосходный у него.
vosmidesijatye
ЦИТАТА(Ghostb @ Feb 2 2018, 00:45:07) *
"Hot Rats" (шедевр - не меньше)


Полностью согласен, только сегодня слушал 25.gif Son Of Mr. Green Genes шедевр, не меньше. Щас переслушиваю по кругу Grand Wazoo - залил в модерке кстати, тоже прекрасные инструменталы.

Такое ощущение, что прямо оказался в аутентичной Америке 70-х 20.gif

А про наклепал - то у него родственники его архивы до сих пор издают, там уже больше 100 альбомов получилось. headcrab.png

Чангас Ревендж только пока никак вообще не пошел.

ЦИТАТА(babanguida @ Feb 2 2018, 00:31:36) *
I am searching for Overnight Sensation album


It`s in the moderation quiue. As soon as it will be here, I`ll add mirrors for convinience. 9.gif
Aresson
шутка про 2 апострофа
(')(')
vosmidesijatye
ЦИТАТА(Aresson @ Feb 5 2018, 12:43:34) *
шутка про 2 апострофа
(')(')


Петросян аплодирует 1488.gif

А альбом - слишком много болтологии, которая традиционно портит весь кайф инструменталов композитора.
Aresson
ЦИТАТА(vosmidesijatye @ 6th February 2018 - 00:32:37) *
Петросян аплодирует

не вижу картинки
garmonbozia
ЦИТАТА(Aresson @ 6th February 2018 - 16:00:42) *
ЦИТАТА(vosmidesijatye @ 6th July 2016 - 23:17:46)
Я шарю как и Сэр воистину грандиозно ибо незыблем эгрегор познания великих истин и подземных тайников. И рудников genius.gif

normal_Homerdisgust3s.png facessspalm.png
babanguida
excellent album
This is a "lo-fi" version of our main content. To view the full version with more information, formatting and images, please click here.
Invision Power Board © 2001-2020 Invision Power Services, Inc.