Help - Search - Members - Calendar
Full Version: Dim - Sense Of Touch [demo] (2001)
Metal Area - Extreme Music Portal > Releases Area / Релизы > New Releases > Unformat R:
Borderline1991


*Artist: Dim
*Album: Sense Of Touch [demo]
*Year: 2001
*Genre: Atmospheric Ambient/Dungeon Synth
*Country: Ukraine
*Format: mp3@CBR320kbps
*Size: 66MB

Tracklist:
01 Epilogue (From Without) 01:50
02 Boredom 03:23
03 Rain 04:12
04 Inspiration 01:41
05 Sorrow 05:18
06 Mist 02:59
07 Disappearing 01:07
08 Loneless 03:17
09 Prologue (Malice) 02:59
10 Sense of Touch 02:14
******************************
Total playing time: 29:00

Extended info
I bought this tape out of curiosity few weeks ago, I couldn't find any info about it on web except that it is Ukranian one man band.
Tape rip + Scans.


Technical info

Input File: 02 Boredom.mp3
Channels : 2
Sample Rate : 44100
Precision : 16-bit
Duration : 00:03:23.91 = 8992475 samples = 15293.3 CDDA sectors
File Size : 8.16M
Bit Rate : 320k
Sample Encoding: MPEG audio (layer I, II or III)
Comments :
Title=Boredom
Artist=Dim
Album=Sense of Touch
Tracknumber=2
Year=2001
Genre=Dungeon Synth



[ Hidden Text ]
sethurius
Есть замечательный альбом Liveride - Грезами ночи, печалью дней... Такая же бескрайняя меланхолия в загадках и бесконечных поисках смысла. Не того непонятного смысла жизни, которого как говаривал старина Невзоров - нет и в помине, а того беспощадного, судорожного, мечтательного, о котором писали Стругацкие.
Гарный Данж!
This is a "lo-fi" version of our main content. To view the full version with more information, formatting and images, please click here.
Invision Power Board © 2001-2019 Invision Power Services, Inc.