Help - Search - Members - Calendar
Full Version: Frank Zappa - Waka/Jawaka (1972)
Metal Area - Extreme Music Portal > Releases Area / Релизы > New Releases > Unformat R:
vosmidesijatye


*Artist: Frank Zappa
*Album: Waka/Jawaka
*Year: 1972
*Genre: Experimental/Avantgarde Rock
*Country: United States
*Format: mp3@CBR320kbps
*Size: 81MB

Tracklist:
01. Big Swifty 17:22
02. Your Mouth 03:12
03. It Just Might Be a One-Shot Deal 04:16
04. Waka/Jawaka 11:18
******************************
Total playing time: 36:08



Technical info

Input File: 04 - Waka-Jawaka.mp3
Channels : 2
Sample Rate : 44100
Precision : 16-bit
Duration : 00:11:18.07 = 29902975 samples = 50855.4 CDDA sectors
File Size : 27.1M
Bit Rate : 320k
Sample Encoding: MPEG audio (layer I, II or III)
Comments :
Title=Waka/Jawaka
Artist=Frank Zappa
Album=Waka/Jawaka
Tracknumber=4
Year=1972
Genre=17



[ Hidden Text ]
vosmidesijatye
Последний трэк - просто изумительный 20.gif

@320

[ Hidden Text ]
vosmidesijatye
Удивительно хоть бы один пупс который котирует прог трэш, эксперимментал метал и т.д. заумь и психодел скачал и написал как ему. Волшебная ведь музыка. Намного интереснее и прогрессивнее большинства якобы умных метал альбомов.
This is a "lo-fi" version of our main content. To view the full version with more information, formatting and images, please click here.
Invision Power Board © 2001-2019 Invision Power Services, Inc.