Help - Search - Members - Calendar
Full Version: Frank Zappa - One Size Fits All (1975)
Metal Area - Extreme Music Portal > Releases Area / Релизы > New Releases > Unformat R:
vosmidesijatye


*Artist: Frank Zappa
*Album: One Size Fits All
*Year: 1975
*Genre: Experimental/Avantgarde Rock
*Country: United States
*Format: mp3@CBR320kbps
*Size: 93MB

Tracklist:
01. Inca Roads 08:45
02. Can't Afford No Shoes 02:38
03. Sofa No. 1 02:39
04. Po-Jama People 07:39
05. Florentine Pogen 05:27
06. Evelyn, a Modified Dog 01:04
07. San Ber'dino 05:57
08. Andy 06:04
09. Sofa No. 2 02:42
******************************
Total playing time: 42:55



Technical info

Input File: 01 - Inca Roads.mp3
Channels : 2
Sample Rate : 44100
Precision : 16-bit
Duration : 00:08:45.01 = 23152985 samples = 39375.8 CDDA sectors
File Size : 21.0M
Bit Rate : 320k
Sample Encoding: MPEG audio (layer I, II or III)
Comments :
Title=Inca Roads
Artist=Frank Zappa
Album=One Size Fits All
Tracknumber=1
Year=1975
Genre=92



[ Hidden Text ]
vosmidesijatye
@320

[ Hidden Text ]
vosmidesijatye
Хорошая работа. Inca Roads - офигительнейший типично "запповский" инструментал, разбавленный слегонца фирменной болтологией, которая, однако, не мешает прослушиванию, но, наоборот, добавляет к эмоциональному спектру. Sofa No. 1 также очень крутой мини-инструментал.
Селезнёв
Наконец-то с Заппой ознакомлюсь, раз тема такая пошла. Собственно, давно хотел, но обширность дискографии отталкивала.
mittal
Я вот тоже, при всей прожорливости, (без)сознательно обхожу его стороной по сей день. Не исключено - потому что пока не услышал компетентных рекоммендаций от 80-го. С чего посоветуешь пристрастится?
Snowblind
Не с рекомендаций 80-го точно 1488.gif. Такто диско у Заппы не такая уж больша, просто надо чОтко представлят себе две вещи - временные периоды творчества и разновидности собсно альбомов. После этого просто выбираешь интересующее и спокойно пыришь.
vosmidesijatye
ЦИТАТА(mittal @ Feb 10 2018, 01:36:43) *
Я вот тоже, при всей прожорливости, (без)сознательно обхожу его стороной по сей день. Не исключено - потому что пока не услышал компетентных рекоммендаций от 80-го. С чего посоветуешь пристрастится?


Joe`s Garage // Hot Rats // The Grand Wazoo. А вообще у него все альбомы, что здесь выложены, интересны по своему.
This is a "lo-fi" version of our main content. To view the full version with more information, formatting and images, please click here.
Invision Power Board © 2001-2019 Invision Power Services, Inc.