Help - Search - Members - Calendar
Full Version: АукцЫон - В Багдаде все спокойно (1989)
Metal Area - Extreme Music Portal > Releases Area / Релизы > New Releases > Unformat R:
vosmidesijatye


*Artist: АукцЫон
*Album: В Багдаде все спокойно
*Year: 1989
*Genre: Psychedelic Rock/Jazz Rock
*Country: Russian Federation
*Format: mp3@CBR320kbps
*Size: 82MB

Tracklist:
01. Путь в Джинистан 04:25
02. Банзай 03:59
03. Водяная дисциплина 05:29
04. Одинокий мужчина 03:50
05. Жертвоприношение 04:38
06. Карлик-Нос 04:58
07. Колдун 04:39
08. Тоска 04:37
******************************
Total playing time: 36:35



Technical info

Input File: 01. Путь в Джинистан.mp3
Channels : 2
Sample Rate : 44100
Precision : 16-bit
Duration : 00:04:24.78 = 11676754 samples = 19858.4 CDDA sectors
File Size : 10.8M
Bit Rate : 325k
Sample Encoding: MPEG audio (layer I, II or III)
Comments :
Title=Путь в Джинистан
Artist=АукцЫон
Album=В Багдаде все спокойно [2000, MR 00337 CD]
Tracknumber=01
Year=1989
Genre=Avant-garde Rock



[ Hidden Text ]
vosmidesijatye
@320

[ Hidden Text ]
This is a "lo-fi" version of our main content. To view the full version with more information, formatting and images, please click here.
Invision Power Board © 2001-2019 Invision Power Services, Inc.