Help - Search - Members - Calendar
Full Version: Хвост и АукцЫон - Жилец Вершин (1995)
Metal Area - Extreme Music Portal > Releases Area / Релизы > New Releases > Unformat R:
vosmidesijatye


*Artist: Хвост и АукцЫон
*Album: Жилец Вершин
*Year: 1995
*Genre: Psychedelic Rock/Jazz Rock
*Country: Russian Federation
*Format: mp3@CBR320kbps
*Size: 108MB

Tracklist:
01. Мешок / Бобэоби 03:46
02. Благовест 02:58
03. Иверни, выверни 02:41
04. Три и два 02:16
05. Призраки 04:38
06. Гроб 01:50
07. Утопленники 04:11
08. Могатырь 04:45
09. Кузнечик 02:55
10. Боги I 02:49
11. Чудовище 02:15
12. Боги II 01:51
13. Нега-неголь 07:36
14. Веселое место 01:20
15. Бобэоби 02:59
******************************
Total playing time: 48:50



Technical info

Input File: 01. Мешок - Бобэоби.mp3
Channels : 2
Sample Rate : 44100
Precision : 16-bit
Duration : 00:03:45.57 = 9947417 samples = 16917.4 CDDA sectors
File Size : 9.09M
Bit Rate : 322k
Sample Encoding: MPEG audio (layer I, II or III)
Comments :
Title=Мешок / Бобэоби
Artist=Хвост и АукцЫон
Album=Жилец вершин [SNC-5049]
Tracknumber=01
Year=1995
Genre=Avant-garde Rock



[ Hidden Text ]
vosmidesijatye
@320

[ Hidden Text ]
This is a "lo-fi" version of our main content. To view the full version with more information, formatting and images, please click here.
Invision Power Board © 2001-2019 Invision Power Services, Inc.