Help - Search - Members - Calendar
Full Version: Король И Шут - Акустический Альбом (1999)
Metal Area - Extreme Music Portal > Releases Area / Релизы > New Releases > Unformat R:
vosmidesijatye


*Artist: Король И Шут
*Album: Акустический Альбом
*Year: 1999
*Genre: Punk Rock
*Country: Russian Federation
*Format: mp3@CBR320kbps
*Size: 116MB

Tracklist:
01. Кукла колдуна
02. Наблюдатель
03. Бедняжка
04. Прыгну со скалы
05. Девушка и Граф
06. Песня мушкетеров
07. Тяни!
08. Утренний рассвет
09. Сосиска
10. Карапуз
11. Спятил отец
12. Ведьма и Осел
13. Екатерина
14. Прерванная любовь, или Арбузная корка
15. Мотоцикл
16. Голые коки
17. Забытые ботинки
******************************
Total playing time: 52:47



Technical info

Input File: 01. Кукла колдуна.mp3
Channels : 2
Sample Rate : 44100
Precision : 16-bit
Duration : 00:03:22.13 = 8913977 samples = 15159.8 CDDA sectors
File Size : 8.09M
Bit Rate : 320k
Sample Encoding: MPEG audio (layer I, II or III)
Comments :
Title=Кукла колдуна
Artist=Король и Шут
Album=Акустический альбом (2000, Nox Music)
Tracknumber=01/17
Year=1999
Genre=Punk Rock



[ Hidden Text ]
vosmidesijatye
Шикарнейший совершенно альбом! Хит на хите, шикарная лирика, по музыке совершенная победа, мелодически самый продуманный и разнообразный альбом наравне со Сказкой. Кукла, Скала, Тяни pray.gif В свое время был на кассете, которую в школе попросили дать послушать и так и не отдали, наверное, понравилось очень. 1488.gif

@320

[ Hidden Text ]
vosmidesijatye
Одна из лучших их песен, бомбический хит pray.gif и адское исполнение!

This is a "lo-fi" version of our main content. To view the full version with more information, formatting and images, please click here.
Invision Power Board © 2001-2019 Invision Power Services, Inc.