Help - Search - Members - Calendar
Full Version: Король И Шут - Король И Шут (Будь как дома, путник) (1997)
Metal Area - Extreme Music Portal > Releases Area / Релизы > New Releases > Unformat R:
vosmidesijatye


*Artist: Король И Шут
*Album: Король И Шут (Будь как дома, путник)
*Year: 1997
*Genre: Punk Rock
*Country: Russian Federation
*Format: mp3@CBR320kbps
*Size: 105MB

Tracklist:
01. Король и Шут
02. Два друга и разбойники
03. Сапоги мертвеца
04. Охотник
05. Паника в селе
06. Истинный убийца
07. Лесник
08. Помоги мне!
09. История о мертвой женщине
10. Кукольный театр
11. Валет и Дама
12. Веселые тролли
13. Он не знает, что такое жизнь!
14. Отец и маски
15. Сказка про дракона
16. Инструмент
17. Собрание
******************************
Total playing time: 49:02



Technical info

Input File: 01. Король и Шут.mp3
Channels : 2
Sample Rate : 44100
Precision : 16-bit
Duration : 00:02:41.61 = 7127045 samples = 12120.8 CDDA sectors
File Size : 6.47M
Bit Rate : 320k
Sample Encoding: MPEG audio (layer I, II or III)
Comments :
Title=Король и Шут
Artist=Король и Шут
Album=Будь как дома, Путник… (2000, Nox Music)
Tracknumber=01/17
Year=1996
Genre=Punk Rock



[ Hidden Text ]
vosmidesijatye
25.gif metaler.gif

@320

[ Hidden Text ]
vosmidesijatye
Одна из самых адских песен!!! Угарнейшее исполнение!!!

vosmidesijatye
Кручу верчу по кругу!!! Да и вообще видос Ели Мясо Мужыки походу самое крутое у них, особенно хорошо там передана атмосфера угара, ну еще Нашествие 2013 бомбовое, но там больше бенефис Горшочка.
Aresson
Сам альбом-то чё не заливаешь?
vosmidesijatye
ЦИТАТА(Aresson @ Feb 9 2018, 16:09:55) *
Сам альбом-то чё не заливаешь?


А надо? Там так то одна всего новая песня, но могу ливануть, не проблема! 25.gif
Aresson
ЦИТАТА(vosmidesijatye @ 9th February 2018 - 15:23:12) *
А надо?

лей лей, там и старые немного подругому сыграны. И помоему больше, чем одна. Кроме титулки, вроде, Прыгну со скалы. Бл, не помню уже нихрена. По треклистам всех альбомов, которые слушал, и половину песен я не могу вспомнить
vosmidesijatye
Ща организую!
This is a "lo-fi" version of our main content. To view the full version with more information, formatting and images, please click here.
Invision Power Board © 2001-2019 Invision Power Services, Inc.