*Artist: Chaos Echœs
*Album: The Unfathomable [ep]
*Year: 2017
*Genre: Dark Ambient
*Country: France
*Format: mp3@CBR320kbps
*Size: 36MB

Tracklist:
1. Interzone VII: Unfathomable (Drifting on Land and Water) 15:38
******************************
Total playing time: 15:38



Extended info
Improvised and recorded in Paris in 2015.
Mixed in Nancy, France in February 2016.
Mastered at Plotkinworks, Bethlehem, Pensnsylvania, US, June 2016.
Released by Nuclear War Now! Productions.


Technical info

Input File: 01 The Unfathomable.mp3
Channels : 2
Sample Rate : 44100
Precision : 16-bit
Duration : 00:15:38.69 = 41396361 samples = 70402 CDDA sectors
File Size : 37.5M
Bit Rate : 320k
Sample Encoding: MPEG audio (layer I, II or III)
Comments :
Title=The Unfathomable
Artist=Chaos EchЕ“s
Album=The Unfathomable EP
Tracknumber=01/1
Year=2017



[ Hidden Text ]