Help - Search - Members - Calendar
Full Version: Chaos Echœs - The Unfathomable [ep] (2017)
Metal Area - Extreme Music Portal > Releases Area / Релизы > New Releases > Unformat R:
Borderline1991


*Artist: Chaos Echœs
*Album: The Unfathomable [ep]
*Year: 2017
*Genre: Dark Ambient
*Country: France
*Format: mp3@CBR320kbps
*Size: 36MB

Tracklist:
1. Interzone VII: Unfathomable (Drifting on Land and Water) 15:38
******************************
Total playing time: 15:38



Extended info
Improvised and recorded in Paris in 2015.
Mixed in Nancy, France in February 2016.
Mastered at Plotkinworks, Bethlehem, Pensnsylvania, US, June 2016.
Released by Nuclear War Now! Productions.


Technical info

Input File: 01 The Unfathomable.mp3
Channels : 2
Sample Rate : 44100
Precision : 16-bit
Duration : 00:15:38.69 = 41396361 samples = 70402 CDDA sectors
File Size : 37.5M
Bit Rate : 320k
Sample Encoding: MPEG audio (layer I, II or III)
Comments :
Title=The Unfathomable
Artist=Chaos EchЕ“s
Album=The Unfathomable EP
Tracknumber=01/1
Year=2017



[ Hidden Text ]
milosdjor
Anyone can upload 320kbps bandcamp version?
ingram
flac of 16:00 version

[ Hidden Text ]

anyone has idea where 15:38 version comes from? is it someone's rip or what?
as it's 16:00 in all official sources
milosdjor
QUOTE(ingram @ Jun 15 2020, 14:47:39) *
flac of 16:00 version



anyone has idea where 15:38 version comes from? is it someone's rip or what?
as it's 16:00 in all official sources


Probably vinyl rip. Do you maybe have Remains compilation? Thanks for this.
I'll upload collaboration with Mats Gustafsson "Sustain" later in the day, it's not on metal area yet.
ingram
ЦИТАТА(milosdjor @ Jun 15 2020, 15:44:25) *
Probably vinyl rip. Do you maybe have Remains compilation? Thanks for this.
I'll upload collaboration with Mats Gustafsson "Sustain" later in the day, it's not on metal area yet.


i have VBR of Remains and flac of Sustain in case you need it
milosdjor
Already have vbr of Remains, but thanks. I added Sustain few hours ago. smile3.gif
milosdjor
I tried to add Sustain twice but obviously I do something wrong. So here it is here.

[ Hidden Text ]
This is a "lo-fi" version of our main content. To view the full version with more information, formatting and images, please click here.
Invision Power Board © 2001-2020 Invision Power Services, Inc.