Help - Search - Members - Calendar
Full Version: Король И Шут - Ели Мясо Мужики [live] (1999)
Metal Area - Extreme Music Portal > Releases Area / Релизы > New Releases > Unformat R:
vosmidesijatye


*Artist: Король И Шут
*Album: Ели Мясо Мужики [live]
*Year: 1999
*Genre: Punk Rock
*Country: Russian Federation
*Format: mp3@CBR320kbps
*Size: 127MB

Tracklist:
01. Ели мясо мужики
02. Охотник
03. Отец и маски
04. Валет и дама
05. Садовник
06. Холодное тело
07. Леший обиделся
08. Дурак и молния
09. Два вора и монета
10. Вячеслав
11. Песня мушкетеров
12. Веселые тролли
13. Мария
14. Шар голубой
15. Мотоцикл
16. Пьеса
17. Прыгну со скалы
18. Помоги мне!
19. Блуждают тени
20. Проказник скоморох
21. Лесник
22. Сапоги
23. Камнем по голове
******************************
Total playing time: 58:18



Technical info

Input File: 01. Ели мясо мужики.mp3
Channels : 2
Sample Rate : 44100
Precision : 16-bit
Duration : 00:02:40.33 = 7070597 samples = 12024.8 CDDA sectors
File Size : 6.41M
Bit Rate : 320k
Sample Encoding: MPEG audio (layer I, II or III)
Comments :
Title=Ели мясо мужики
Artist=Король и Шут
Album=Ели Мясо Мужики (2003, Manchester Files)
Tracknumber=01/23
Year=1999
Genre=Punk Rock



[ Hidden Text ]
vosmidesijatye
@320

[ Hidden Text ]



Адское мошево, угар и дебош в Орлёнке 1488.gif
Unkle Jonny
стал слушать кишей только после прослушки сего альбома, другие не пёрли (не было мощи, скорости и угара), пока его не послушал
This is a "lo-fi" version of our main content. To view the full version with more information, formatting and images, please click here.
Invision Power Board © 2001-2019 Invision Power Services, Inc.