*Artist: Thangorodrim
*Album: Akallabêth [ep]
*Year: 2018
*Genre: Dungeon Synth/Ambient
*Country: United States
*Format: mp3@CBR320kbps
*Size: 48MB

Tracklist:
1. Númenor 12:37
2. The Felling Of Nimloth 08:10
******************************
Total playing time: 20:47



Extended info
-Limited cassette edition to 100 hand-numbered copies, including a patch.


Technical info

Input File: 02 - The Felling Of Nimloth.mp3
Channels : 2
Sample Rate : 44100
Precision : 16-bit
Duration : 00:08:11.05 = 21655129 samples = 36828.5 CDDA sectors
File Size : 19.8M
Bit Rate : 322k
Sample Encoding: MPEG audio (layer I, II or III)
Comments :
Title=The Felling Of Nimloth
Artist=Thangorodrim
Album=AkallabГЄth
Tracknumber=2
Year=2018
Genre=Dungeon Synth



[ Hidden Text ]