Help - Search - Members - Calendar
Full Version: Frank Zappa - The Man From Utopia (1983)
Metal Area - Extreme Music Portal > Releases Area / Релизы > New Releases > Unformat R:
vosmidesijatye


*Artist: Frank Zappa
*Album: The Man From Utopia
*Year: 1983
*Genre: Experimental/Avantgarde Rock
*Country: United States
*Format: mp3@CBR320kbps
*Size: 85MB

Tracklist:
01. Cocaine Decisions
02. SEX
03. Tink Walks Amok
04. The Radio is Broken
05. We Are Not Alone
06. The Dangerous Kitchen
07. The Man from Utopia Meets Mary Lou
08. Stick Together
09. The Jazz Discharge Party Hats
10. Luigi & the Wise Guys (bonus track)
11. Mōggio
******************************
Total playing time: 40:21



Technical info

Input File: 01 - Cocaine Decisions.mp3
Channels : 2
Sample Rate : 44100
Precision : 16-bit
Duration : 00:03:53.15 = 10281695 samples = 17485.9 CDDA sectors
File Size : 9.33M
Bit Rate : 320k
Sample Encoding: MPEG audio (layer I, II or III)
Comments :
Title=Cocaine Decisions
Artist=Frank Zappa
Album=The Man From Utopia
Tracknumber=1
Year=1983
Genre=17



[ Hidden Text ]
vosmidesijatye
@320

[ Hidden Text ]
This is a "lo-fi" version of our main content. To view the full version with more information, formatting and images, please click here.
Invision Power Board © 2001-2019 Invision Power Services, Inc.