Help - Search - Members - Calendar
Full Version: Frank Zappa - Ship Arriving Too Late To Save A Drowning Witch (1982)
Metal Area - Extreme Music Portal > Releases Area / Релизы > New Releases > Unformat R:
vosmidesijatye


*Artist: Frank Zappa
*Album: Ship Arriving Too Late To Save A Drowning Witch
*Year: 1982
*Genre: Experimental/Avantgarde Rock
*Country: United States
*Format: mp3@CBR320kbps
*Size: 73MB

Tracklist:
01. No Not Now
02. Valley Girl
03. I Come from Nowhere
04. Drowning Witch
05. Envelopes
06. Teen-Age Prostitute
******************************
Total playing time: 34:18



Technical info

Input File: 01 - No Not Now.mp3
Channels : 2
Sample Rate : 44100
Precision : 16-bit
Duration : 00:05:49.99 = 15434603 samples = 26249.3 CDDA sectors
File Size : 14.0M
Bit Rate : 320k
Sample Encoding: MPEG audio (layer I, II or III)
Comments :
Title=No Not Now
Artist=Frank Zappa
Album=Ship Arriving Too Late to Save a Drowning Witch
Tracknumber=1
Year=1982
Genre=17



[ Hidden Text ]
vosmidesijatye
@320

[ Hidden Text ]
This is a "lo-fi" version of our main content. To view the full version with more information, formatting and images, please click here.
Invision Power Board © 2001-2019 Invision Power Services, Inc.