Help - Search - Members - Calendar
Full Version: Frank Zappa - Tinseltown Rebellion (1981)
Metal Area - Extreme Music Portal > Releases Area / Релизы > New Releases > Unformat R:
vosmidesijatye


*Artist: Frank Zappa
*Album: Tinseltown Rebellion
*Year: 1981
*Genre: Experimental/Avantgarde Rock
*Country: United States
*Format: mp3@CBR320kbps
*Size: 154MB

Tracklist:
01. Fine Girl
02. Easy Meat
03. For the Young Sophisticate
04. Love of My Life
05. I Ain't Got No Heart
06. Panty Rap
07. Tell Me You Love Me
08. Now You See It- Now You Don't
09. Dance Contest
10. The Blue Light
11. Tinseltown Rebellion
12. Pick Me, I'm Clean
13. Bamboozled by Love
14. Brown Shoes Don't Make It
15. Peaches III
******************************
Total playing time: 1:07:19



Technical info

Input File: 01 - Fine Girl.mp3
Channels : 2
Sample Rate : 44100
Precision : 16-bit
Duration : 00:03:30.63 = 9288695 samples = 15797.1 CDDA sectors
File Size : 8.43M
Bit Rate : 320k
Sample Encoding: MPEG audio (layer I, II or III)
Comments :
Title=Fine Girl
Artist=Frank Zappa
Album=Tinseltown Rebellion
Tracknumber=1
Year=1981
Genre=17



[ Hidden Text ]
vosmidesijatye
@320

[ Hidden Text ]

Замечательный альбом 20.gif
This is a "lo-fi" version of our main content. To view the full version with more information, formatting and images, please click here.
Invision Power Board © 2001-2019 Invision Power Services, Inc.