Help - Search - Members - Calendar
Full Version: Frank Zappa - Roxy & Elsewhere [live] (1974)
Metal Area - Extreme Music Portal > Releases Area / Релизы > New Releases > Unformat R:
vosmidesijatye


*Artist: Frank Zappa
*Album: Roxy & Elsewhere [live]
*Year: 1974
*Genre: Experimental/Avantgarde Rock
*Country: United States
*Format: mp3@CBR320kbps
*Size: 159MB

Tracklist:
01. Penguin in Bondage
02. Pygmy Twylyte
03. Dummy Up
04. Village of the Sun
05. Echidna's Arf (Of You)
06. Don't You Ever Wash That Thing?
07. Cheepnis
08. Son of Orange County
09. More Trouble Every Day
10. Be-Bop Tango (Of the Old Jazzmen's Church)
******************************
Total playing time: 1:08:04



Technical info

Input File: 05 - Echidna\'s Arf (Of You).mp3
Channels : 2
Sample Rate : 44100
Precision : 16-bit
Duration : 00:03:53.19 = 10283855 samples = 17489.5 CDDA sectors
File Size : 9.33M
Bit Rate : 320k
Sample Encoding: MPEG audio (layer I, II or III)
Comments :
Title=Echidna's Arf (Of You)
Artist=Frank Zappa
Album=Roxy & Elsewhere
Tracknumber=05
Year=1974
Genre=Progressive Rock



[ Hidden Text ]
vosmidesijatye
Как и почти всегда у Заппы - мастерство вкупе с душевностью зашкаливают.

@320

[ Hidden Text ]
This is a "lo-fi" version of our main content. To view the full version with more information, formatting and images, please click here.
Invision Power Board © 2001-2019 Invision Power Services, Inc.