Help - Search - Members - Calendar
Full Version: Naxatras - III (2018)
Metal Area - Extreme Music Portal > Releases Area / Релизы > New Releases > Unformat R:
vosmidesijatye


*Artist: Naxatras
*Album: III
*Year: 2018
*Genre: Psychedelic/Stoner Rock
*Country: Greece
*Format: mp3@CBR320kbps
*Size: 158MB

Tracklist:
1. You Won't Be Left Alone 11:17
2. On the Silver Line 09:55
3. Land of Infinite Time 12:04
4. Machine 10:50
5. Prophet 08:02
6. White Morning 07:13
7. Spring Song 05:31
******************************
Total playing time: 1:04:52



Technical info

Input File: Naxatras - III - 01 You Won\'t Be Left Alone.mp3
Channels : 2
Sample Rate : 44100
Precision : 16-bit
Duration : 00:11:17.63 = 29883351 samples = 50822 CDDA sectors
File Size : 27.3M
Bit Rate : 322k
Sample Encoding: MPEG audio (layer I, II or III)
Comments :
Title=You Won't Be Left Alone
Artist=Naxatras
Album=III
Tracknumber=1
Year=2018



[ Hidden Text ]
vosmidesijatye
@320

[ Hidden Text ]
gena
К грекам в любом направлении оьношусь скептически. Но тут музыка очень хороша 20.gif
Может у кого альбом есть All the Stars Collide Into a Single Ray
This is a "lo-fi" version of our main content. To view the full version with more information, formatting and images, please click here.
Invision Power Board © 2001-2020 Invision Power Services, Inc.