Help - Search - Members - Calendar
Full Version: Eye Of Solitude & Marche Funèbre - Collapse/Darkness [split] (2018)
Metal Area - Extreme Music Portal > Releases Area / Релизы > Archive
necroscum


*Artist: Eye Of Solitude & Marche Funèbre
*Album: Collapse/Darkness [split]
*Year: 2018
*Genre: Funeral Doom Metal | Doom/Death Metal
*Country: United Kingdom | Belgium
*Format: mp3@CBR320kbps
*Size: 70MB

Tracklist:
Eye Of Solitude:
01. Collapse 16:14
Marche Funèbre:
02. Darkness 14:11
******************************
Total playing time: 30:25





Technical info

Input File: 2 - Marche Funebre - Darkness.mp3
Channels : 2
Sample Rate : 44100
Precision : 16-bit
Duration : 00:14:11.23 = 37539111 samples = 63842 CDDA sectors
File Size : 34.2M
Bit Rate : 321k
Sample Encoding: MPEG audio (layer I, II or III)
Comments :
Title=Darkness
Artist=Marche Funebre
Album=Collapse / Darkness
Tracknumber=2/2/2
Year=2018
Genre=Alternative
Discnumber=1/1/1



[ Hidden Text ]
vosmidesijatye
@320

[ Hidden Text ]
Chasm
Великолепие.
2 отличных группы 2 отличных трэка.
demether
обе песни шикардосные
bc_
Всё равно непонятно, чем, кроме примерно равной длины треков, руководствовались составители сплита. Совершенно разные по жанру и по звучанию команды же.. Раньше в магазинах было такое явление, как нагрузка.. Пошёл прикупить бутылочку растительного масла, а в нагрузочку и презервативчиков. А иначе не продадут.
aesteticvice
320/69MB
[ Hidden Text ]
SatanicPanzer
ЦИТАТА(bc_ @ Feb 22 2018, 10:24:23) *
Всё равно непонятно, чем, кроме примерно равной длины треков, руководствовались составители сплита. Совершенно разные по жанру и по звучанию команды же..

А существуют какие-то правила по составлению сплитов? Все команды должны выступать в одном жанре? Звучит как редкостный бред, если честно... fear.gif
isvili
ЦИТАТА(bc_ @ Feb 22 2018, 09:24:23) *
Всё равно непонятно, чем, кроме примерно равной длины треков, руководствовались составители сплита. Совершенно разные по жанру и по звучанию команды же..

Просто они группами давно уже дружат, вот тебе и основание, так часто бывает.
Chasm
ЦИТАТА(bc_ @ Feb 22 2018, 10:24:23) *
Раньше в магазинах было такое явление, как нагрузка.. Пошёл прикупить бутылочку растительного масла, а в нагрузочку и презервативчиков. А иначе не продадут.

Сопутствующий товар или доп продажа для увеличения среднего члена чека.
То естъ если ты купил кокосового масла для тела то все в магазине про тебя думают что скорее всего ты гей и тебе как бы с намеком на повышенный риск предлагают кондомчики. А в особо продвинутых магазах ещё и страховку на 2 годапредложат.
Хорошие трэки, кстати.
dermarsoran
[ Hidden Text ]
This is a "lo-fi" version of our main content. To view the full version with more information, formatting and images, please click here.
Invision Power Board © 2001-2022 Invision Power Services, Inc.