Help - Search - Members - Calendar
Full Version: Arcana - Emerald [ep] (2012)
Metal Area - Extreme Music Portal > Releases Area / Релизы > New Releases > Unformat R:
kefka


*Artist: Arcana
*Album: Emerald [ep]
*Year: 2012
*Genre: Neoclassical Darkwave
*Country: Sweden
*Format: mp3@CBR320kbps
*Size: 30MB

Tracklist:
01. As the End Draws Near 04:17
02. A Cage 04:35
03. Precious Stone 04:41
******************************
Total playing time: 13:33

Extended info
Limited edition of 1000 copies in 4-panel eco pack.


Technical info

Input File: 01. As the End Draws Near cut .mp3
Channels : 2
Sample Rate : 44100
Precision : 16-bit
Duration : 00:01:32.03 = 4058479 samples = 6902.18 CDDA sectors
File Size : 3.68M
Bit Rate : 320k
Sample Encoding: MPEG audio (layer I, II or III)



[ Hidden Text ]
abob
This is a "lo-fi" version of our main content. To view the full version with more information, formatting and images, please click here.
Invision Power Board © 2001-2020 Invision Power Services, Inc.