Help - Search - Members - Calendar
Full Version: Totem Skin - Weltschmerz (2015)
Metal Area - Extreme Music Portal > Releases Area / Релизы > New Releases > Unformat R:
Black Cat


*Artist: Totem Skin
*Album: Weltschmerz
*Year: 2015
*Genre: Screamo/Hardcore/Crust Punk
*Country: Sweden
*Format: mp3@CBR320kbps
*Size: 77MB

Tracklist:
01. always ire
02. longing leans and beckon
03. reckless recluse
04. the mouth of man
05. pretend
06. distant visitant
07. de blindas rike är den enögde kung
******************************
Total playing time: 34:00

Technical info

Input File: 02 - Longing Leans And Beckon.mp3
Channels : 2
Sample Rate : 44100
Precision : 16-bit
Duration : 00:03:00.81 = 7973853 samples = 13561 CDDA sectors
File Size : 7.28M
Bit Rate : 322k
Sample Encoding: MPEG audio (layer I, II or III)
Comments :
Title=Longing Leans And Beckon
Artist=Totem Skin
Album=Weltschmerz
Tracknumber=02
Year=2015
Genre=Screamo/Hardcore/Crust Punk



[ Hidden Text ]
popen13
Ghostb
Обложку лидер Baroness рисовал, судя по всему)
Evgundel
newer links (320): [ Hidden Text ]
This is a "lo-fi" version of our main content. To view the full version with more information, formatting and images, please click here.
Invision Power Board © 2001-2024 Invision Power Services, Inc.