Help - Search - Members - Calendar
Full Version: Raat - Ethereal Twilight [ep] (2018)
Metal Area - Extreme Music Portal > Releases Area / Релизы > Archive
necroscum


*Artist: Raat
*Album: Ethereal Twilight [ep]
*Year: 2018
*Genre: Atmospheric Post-Black Metal
*Country: India
*Format: mp3@CBR320kbps
*Size: 56MB

Tracklist:
01. Stygian 04:15
02. Ataraxia 05:29
03. Intemerate 06:15
04. Wash Away 08:26
******************************
Total playing time: 24:25




Technical info

Input File: 02. Ataraxia.mp3
Channels : 2
Sample Rate : 44100
Precision : 16-bit
Duration : 00:05:29.04 = 14510796 samples = 24678.2 CDDA sectors
File Size : 13.3M
Bit Rate : 324k
Sample Encoding: MPEG audio (layer I, II or III)
Comments :
Title=Ataraxia
Artist=Raat
Album=Ethereal Twilight
Tracknumber=2
Year=2018



[ Hidden Text ]
SameMan
Неплохо, для Индии.
yarrsuaa
re [ Hidden Text ]

BTW, Raat means Night
This is a "lo-fi" version of our main content. To view the full version with more information, formatting and images, please click here.
Invision Power Board © 2001-2021 Invision Power Services, Inc.