Help - Search - Members - Calendar
Full Version: Spiral Skies - Blues For A Dying Planet (2018)
Metal Area - Extreme Music Portal > Releases Area / Релизы > Archive
Necrokilldozer


*Artist: Spiral Skies
*Album: Blues For A Dying Planet
*Year: 2018
*Genre: Psychedelic Doom Metal/Rock
*Country: Sweden
*Format: mp3@CBR320kbps
*Size: 85MB

Tracklist:
1. Black Hole Waltz 01:26
2. Awakening 03:31
3. Dark Side of the Cross 04:05
4. The Wizard's Ball 05:37
5. Danse Macabre 04:18
6. Labyrinth of the Mind 05:43
7. Shattered Hopes 03:18
8. Left Is Right and Right Is Left Behind 04:38
9. The Prisoner 06:03
******************************
Total playing time: 38:39



Extended info
Line - up:

Eric - Bass
Daniel - Drums
Jonas - Guitars
Dan - Guitars
Frida - Vocals (ex-Lapis Lazuli)



Technical info

Input File: 09 The Prisoner.mp3
Channels : 2
Sample Rate : 44100
Precision : 16-bit
Duration : 00:06:03.01 = 16008653 samples = 27225.6 CDDA sectors
File Size : 14.5M
Bit Rate : 320k
Sample Encoding: MPEG audio (layer I, II or III)
Comments :
Title=The Prisoner
Artist=Spiral Skies
Album=Blues For A Dying Planet
Tracknumber=09
Year=2018
Genre=Psychedelic Doom Metal / Rock



[ Hidden Text ]
avkruchinin
По ходу здесь вокалистка получше слушается, нежели в других её группах.
helvetestoner
reupload it please!
KVRT
ЦИТАТА(helvetestoner @ Dec 19 2019, 20:07:38) *
reupload it please!

[ Hidden Text ]
This is a "lo-fi" version of our main content. To view the full version with more information, formatting and images, please click here.
Invision Power Board © 2001-2021 Invision Power Services, Inc.