Help - Search - Members - Calendar
Full Version: La Torture Des Ténèbres & Ashen Chalice - Ashen Chalice/La Torture Des Ténèbres [split] (2018)
Metal Area - Extreme Music Portal > Releases Area / Релизы > Archive
Necrokilldozer


*Artist: La Torture Des Ténèbres & Ashen Chalice
*Album: Ashen Chalice/La Torture Des Ténèbres [split]
*Year: 2018
*Genre: Black Metal/Ambient | Black Metal/Ambient
*Country: Canada | Croatia
*Format: mp3@CBR320kbps
*Size: 67MB

Tracklist:
La Torture des Ténèbres:
1. L'Éloignement 15:06
Ashen Chalice:
2. Represija ljuvabi 13:05
******************************
Total playing time: 28:11



Extended info
FLAC RIP


Technical info

Input File: 01. La Torture Des Ténèbres - L\'Éloignement.mp3
Channels : 2
Sample Rate : 48000
Precision : 16-bit
Duration : 00:15:06.36 = 43505424 samples ~ 67977.2 CDDA sectors
File Size : 36.3M
Bit Rate : 320k
Sample Encoding: MPEG audio (layer I, II or III)
Comments :
Title=L'Eloignement
Artist=La Torture des Ténèbres
Album=Ashen Chalice / La Torture des Ténèbres (Split)
Tracknumber=1
Year=2018
Genre=Black Metal / Ambient



[ Hidden Text ]
dermarsoran
[ Hidden Text ]
This is a "lo-fi" version of our main content. To view the full version with more information, formatting and images, please click here.
Invision Power Board © 2001-2024 Invision Power Services, Inc.