Help - Search - Members - Calendar
Full Version: Żywia - Słowiańska Wiara (2014)
Metal Area - Extreme Music Portal > Releases Area / Релизы > New Releases > Low Bitrate
RotAnus


*Artist: Żywia
*Album: Słowiańska Wiara
*Year: 2014
*Genre: Folk/Pagan Metal
*Country: Poland
*Format: mp3@CBR192kbps
*Size: 56MB

Tracklist:
01. Pieśń Perunowa
02. Bramy Nawii
03. Wilcza Pani
04. Kupała, Kupała
05. Pieśń Plonowa
06. Mokosz
07. Ostatni Żerca
08. Modlitwa Wojownika
09. Kobieta-Drzewo
10. Wataha
******************************
Total playing time: 40:43



Technical info

Input File: 06. Mokosz.mp3
Channels : 2
Sample Rate : 44100
Precision : 16-bit
Duration : 00:02:46.49 = 7342121 samples = 12486.6 CDDA sectors
File Size : 4.13M
Bit Rate : 198k
Sample Encoding: MPEG audio (layer I, II or III)
Comments :
Title=Mokosz
Artist=Żywia
Album=Słowiańska Wiara
Tracknumber=06
Year=2014
Genre=Folk / Pagan Metal



[ Hidden Text ]
avather
Как-то не задорно совсем 6.gif
sacrvm_bellvm
1 Pieśń Perunowa
2 Wilcza Pani
3 Kupała, Kupała
4 Pieśń Plonowa
5 Mokosz
6 Ostatni Żerca
7 Modlitwa Wojownika
8 Kobieta-Drzewo
9 Wataha
10 Bramy Nawii

Корректный треклист, 10 трек кавер на Конквисту - Bramy Valhalli
This is a "lo-fi" version of our main content. To view the full version with more information, formatting and images, please click here.
Invision Power Board © 2001-2023 Invision Power Services, Inc.