Help - Search - Members - Calendar
Full Version: Arion - Life Is Not Beautiful (2018)
Metal Area - Extreme Music Portal > Releases Area / Релизы > Archive
dmaxsst


*Artist: Arion
*Album: Life Is Not Beautiful
*Year: 2018
*Genre: Symphonic Power Metal
*Country: Finland
*Format: mp3@CBR320kbps
*Size: 134MB

Tracklist:
01. The End Of The Fall
02. No One Stands In My Way
03. At The Break Of Dawn (Feat. Elize Ryd)
04. The Last Sacrifice
05. Through Your Falling Tears
06. Unforgivable
07. Punish You
08. Life Is Not Beautiful
09. Last One Falls
10. Last of Us (2018 Version) (Digipak Bonus Track)
11. Seven (2018 Version) (Digipak Bonus Track)
12. I Am the Storm (2018 Version) (Digipak Bonus Track)
13. At The Break Of Dawn (Psylla Remix) (Japan Bonus Track)
******************************
Total playing time: 57:48



Technical info

Input File: 02. No One Stands In My Way.mp3
Channels : 2
Sample Rate : 44100
Precision : 16-bit
Duration : 00:03:55.33 = 10377921 samples = 17649.5 CDDA sectors
File Size : 9.65M
Bit Rate : 328k
Sample Encoding: MPEG audio (layer I, II or III)
Comments :
Title=No One Stands In My Way
Artist=Arion
Album=Life Is Not Beautiful
Tracknumber=2/12
Year=2018
Discnumber=1/1



[ Hidden Text ]
aesteticvice
135/320
[ Hidden Text ]


MeatWolf
Ну этого стоило ожидать. Альбом каша, набор синглов. Сногсшибательные темы вида Stratovarius + Amaranthe соседствуют с полной лажей, и лажи почти столько же, если не больше. Unforgivable одна из лучших песен в жанре, что я слышал за последние лет 5, но какой-то ориентальный металкор в конце альбома, 2 (!) баллады, и это при том, что диск из 8 треков, из которых 5 (!) уже были засвечены в синглах. Перезапись хитов с дебютника, кстати, тоже провалена.

У них есть все данные: офигенный вокалист, отличный композитор + аранжировщик, куча денег на хорошую запись, но лучше бы они посидели ещё и собрали больше материала. В нынешнем виде это хорошая ЕР.
Cronopio
Thank you.
sadmannn
Ну, да, в точности всё, как MeatWolf и написал
Схалтурили ребята, могли бы за 4 года и нормальный диск выдать, потенциал есть
Dreamtale
ЦИТАТА(MeatWolf @ 17th October 2018 - 11:17:18) *
Unforgivable одна из лучших песен в жанре, что я слышал за последние лет 5

Что-то от Стратов действительно есть, но и у них за последние 5 лет были треки получше этого (хотя трек норм). Хотя бы первый с новой компиляшки.
Nitais_Ter
Unforgivable / At The Break Of Dawn / No One Stands In My Way - скажите, как хватает совести выставлять такие хиты рядом с тем, что есть еще на альбоме??? Да еще и с таким хронометражем... 39 мин., где пол альбома мусора. 6.gif

5/10.
DenisKov
Вот так УГ, неожиданно конечно, думал у банды большой потенциал. Не одной хорошей песни и Анфогивен хваленая тоже по мне так бездушная жвачка.
avather
На помойку такой павер
Old Vyaine
Абсолютно ничего такого ужасного на альбоме нет, впечатления скорее положительные... но очень умеренно, потому что когда начинают играть пусть даже странно перезаписанные вещи с дебюта, становится очевидна разница между релизами, а также между ожиданиями и беспощадной реальностью.

Короче, не говно, и даже близко не говно, но разочарование, да.
MeatWolf
ЦИТАТА(Old Vyaine @ 23rd October 2018 - 12:48:17) *
но очень умеренно, потому что когда начинают играть пусть даже странно перезаписанные вещи с дебюта, становится очевидна разница между релизами, а также между ожиданиями и беспощадной реальностью.

На дебюте только этих два хита и было, по сути. Заглавная мимо.
satanist666
ARION:
This is a "lo-fi" version of our main content. To view the full version with more information, formatting and images, please click here.
Invision Power Board © 2001-2021 Invision Power Services, Inc.