Help - Search - Members - Calendar
Full Version: Six Foot Six - The Six Foot Six Project (2018)
Metal Area - Extreme Music Portal > Releases Area / Релизы > Archive
aesteticvice


*Artist: Six Foot Six
*Album: The Six Foot Six Project
*Year: 2018
*Genre: Melodic Heavy/Power Metal
*Country: Sweden
*Format: mp3@CBR320kbps
*Size: 87MB

Tracklist:
01. Virus Inside
02. Bleed for Mankind
03. Falling Sparrow
04. Frozen in Time
05. Pride and Glory
06. Anomia
07. Test of Time
08. In Defiance
09. From the Ground
10. Ephemeral
******************************
Total playing time: 41:05

Extended info
Kristoffer Göbel – Vocals, Guitar (Falconer, Destiny)
Anders Kiel – Guitar, Backing Vocals
Markus Gustafsson – Bass
Henrik Hedman – Drums (Vindictiv, Last Kingdom, Celestial Decay)
Christoffer Borg – Guitar (Evergrey)



Technical info

Input File: 06. Anomia.mp3
Channels : 2
Sample Rate : 44100
Precision : 16-bit
Duration : 00:03:50.08 = 10146352 samples = 17255.7 CDDA sectors
File Size : 9.30M
Bit Rate : 323k
Sample Encoding: MPEG audio (layer I, II or III)
Comments :
Title=Anomia
Artist=Six Foot Six
Album=The Six Foot Six Project
Tracknumber=6
Year=2018
Discnumber=1



[ Hidden Text ]
aesteticvice
mirror
[ Hidden Text ]
kiol1
Ребята, очень рекомендую послушать. Просто бальзам на душу. Такой без вые...ов в виде дудок-скрипок-аккордеонов heavy-power, приятный вокал, классный звук. При прослушке думал, что вот, просто идеальный альбом без соплей в виде баллад, ан нет, всё-таки последняя оказалась балладой... Ну да ладно.)
kiol1
https://www.youtube.com/watch?v=_2regvhRjxg
This is a "lo-fi" version of our main content. To view the full version with more information, formatting and images, please click here.
Invision Power Board © 2001-2021 Invision Power Services, Inc.