Help - Search - Members - Calendar
Full Version: Summoning Death - The House That Screamed (2018)
Metal Area - Extreme Music Portal > Releases Area / Релизы > Archive
Samaritianin


*Artist: Summoning Death
*Album: The House That Screamed
*Year: 2018
*Genre: Old School Death Metal
*Country: Mexico
*Format: mp3@CBR320kbps
*Size: 132MB

Tracklist:
1. Intro 01:08
2. The Screaminfg Skull (1958) 04:30
3. Night of the Living Death (1968) 06:01
4. Carnival of Souls (1962) 05:04
5. Keep My Grave Open (1976) 02:56
6. The Cabinet of Doctor Caligari (1920) 04:07
7. Attack of the Giant Leeches (1959) 04:13
8. The Embalmer (1959) 05:45
9. The Night Evelyn Came Out of the Grave (1971) 01:43
10. House (1985) 05:25
11. Maniac (1934) 06:04
12. The House That Screamed (1969) 06:12
13. Torn Apart (carnage cover) 05:16
******************************
Total playing time: 58:24




Extended info
Ángel Santos Drums
José Javier Valdez Guitars
Ricardo Gil Guitars
See also: Difer Nom Basta, ex-As Light Fades, ex-Denial, ex-Necroccultus, ex-The Suffering, ex-Trono de Huesos
Sergio Álvarez Bass (2018-present)
See also: Difer Nom Basta, ex-Ravager, ex-Hacavitz


Technical info

Input File: 06 The Cabinet of Doctor Caligari (1920).mp3
Channels : 2
Sample Rate : 44100
Precision : 16-bit
Duration : 00:04:09.59 = 11006743 samples = 18719 CDDA sectors
File Size : 9.99M
Bit Rate : 320k
Sample Encoding: MPEG audio (layer I, II or III)
Comments :
Title=The Cabinet of Doctor Caligari (1920)
Artist=Summoning Death
Album=The House That Screamed
Tracknumber=6
Year=2018
Genre=Death Metal



[ Hidden Text ]
Samaritianin
Cloud Mail 320
[ Hidden Text ]
Unknown
Четкий олдскулл!!Мелодичный и одновременно жесткий!Все в тему!
avather
По фильмам названы трэки
This is a "lo-fi" version of our main content. To view the full version with more information, formatting and images, please click here.
Invision Power Board © 2001-2022 Invision Power Services, Inc.