Help - Search - Members - Calendar
Full Version: Cosmic Entity - State Of The Union (2019)
Metal Area - Extreme Music Portal > Releases Area / Релизы > Archive
necroscum


*Artist: Cosmic Entity
*Album: State Of The Union
*Year: 2019
*Genre: Thrash/Death Metal
*Country: United States
*Format: mp3@CBR320kbps
*Size: 113MB

Tracklist:
01. I Am Not a Crook!
02. Dead Hand
03. Cult 45
04. Arbeit Macht Frei
05. We Want the Truth (Interlude)
06. Mass Manipulator
07. Nameless Warrior
08. Kill, Destroy, Obliterate!
09. Pyrrhic Victories (The Price of War)
10. Worship the Bullet
******************************
Total playing time: 49:13



Technical info

Input File: 02. Cult 45.mp3
Channels : 2
Sample Rate : 44100
Precision : 16-bit
Duration : 00:05:12.52 = 13782264 samples = 23439.2 CDDA sectors
File Size : 12.5M
Bit Rate : 321k
Sample Encoding: MPEG audio (layer I, II or III)
Comments :
Title=Cult 45
Artist=Cosmic Entity
Album=State of the Union
Tracknumber=2/10
Year=2019



[ Hidden Text ]
Ostinato
This is a "lo-fi" version of our main content. To view the full version with more information, formatting and images, please click here.
Invision Power Board © 2001-2021 Invision Power Services, Inc.