Help - Search - Members - Calendar
Full Version: Lysithea - Star-Crossed (2019)
Metal Area - Extreme Music Portal > Releases Area / Релизы > New Releases > Lossless
necroscum


*Artist: Lysithea
*Album: Star-Crossed
*Year: 2019
*Genre: Progressive/Melodic Doom Metal
*Country: New Zealand
*Format: mp3@CBR320kbps
*Size: 108MB

Tracklist:
1. An Empty Throne
2. Away
3. The Longing
4. Celeste
5. Unearthly Burial
6. Fever Dream
******************************
Total playing time: 47:15





Technical info

Input File: 2 - Away.mp3
Channels : 2
Sample Rate : 44100
Precision : 16-bit
Duration : 00:07:38.08 = 20201416 samples = 34356.1 CDDA sectors
File Size : 18.4M
Bit Rate : 322k
Sample Encoding: MPEG audio (layer I, II or III)
Comments :
Title=Away
Artist=Lysithea
Album=Star-Crossed
Tracknumber=2
Year=2019
Genre=Metal
Discnumber=1



[ Hidden Text ]
aesteticvice


107/320
[ Hidden Text ]
isvili
Достаточно известная группа, альбомы 2014 и 2015 годов были очень не плохи dooo.gif
Все таки стиль бы еще добавил два слова: Death Metal.
Прогрессива не услышал, скорей Atmospheric Melodic Death/Doom Metal
nomadgg1
Именно, дэт тут на первом месте dooo.gif
DenisKov
На раз послушать можно.
dm666

Lysithea - Star-Crossed (2019)





Format: mp3@320kbps (Lame 3.93.1) + Covers
[ Hidden Text ]
Lossless: FLAC (image+.cue+.log) + Covers
[ Hidden Text ]
This is a "lo-fi" version of our main content. To view the full version with more information, formatting and images, please click here.
Invision Power Board © 2001-2021 Invision Power Services, Inc.