Help - Search - Members - Calendar
Full Version: Mass Hysteria - Maniac (2018)
Metal Area - Extreme Music Portal > Releases Area / Релизы > New Releases > Unformat R:
icingsugar


*Artist: Mass Hysteria
*Album: Maniac
*Year: 2018
*Genre: Nu-Metal/Frenchcore
*Country: France
*Format: mp3@CBR320kbps
*Size: 93MB

Tracklist:
1 Reprendre mes esprits 02:51
2 Ma niaque 02:59
3 Partager nos ombres 04:00
4 L'antre ciel ether 03:47
5 Chaman acide 03:35
6 Se bruler sûrement 03:44
7 Nerf de boeuf 04:32
8 Aromes complexes 03:56
9 Derriere la foudre 05:15
10 We Came to Hold Up Your Mind 04:19
******************************
Total playing time: 38:58

Extended info


Technical info

Input File: 01 - Reprendre mes esprits.mp3
Channels : 2
Sample Rate : 44100
Precision : 16-bit
Duration : 00:02:51.58 = 7566722 samples = 12868.6 CDDA sectors
File Size : 7.05M
Bit Rate : 329k
Sample Encoding: MPEG audio (layer I, II or III)
Comments :
Title=Reprendre mes esprits
Artist=Mass Hysteria
Album=Maniac
Tracknumber=01
Year=2018
Genre=Nu-Metal | Frenchcore



[ Hidden Text ]
Hell_Is_Here
ЦИТАТА
*Стиль: Nu-Metal/Frenchcore
crazy.gif Вот настоящий Frenchcore. 23.gif
biroutios
Mass Hysteria has never been French core
goxther
Я уже видел эту картинку на обложке. не покидает меня такое чувство
Victim of fate
ЦИТАТА(Hell_Is_Here @ Feb 24 2019, 17:56:13) *
crazy.gif Вот настоящий Frenchcore. 23.gif

это имбецильное мясо в гадюшнике

средний,без напора
но я так соскучился по этому стилю)))))))
This is a "lo-fi" version of our main content. To view the full version with more information, formatting and images, please click here.
Invision Power Board © 2001-2019 Invision Power Services, Inc.