*Artist: Alice Cooper
*Album: School's Out And Other Hits (1972-1980) [compilation]
*Year: 2004
*Genre: Glam/Hard Rock
*Country: United States
*Format: mp3@CBR320kbps
*Size: 78MB

Tracklist:
1. School's Out 03:31
2. Under My Wheels 02:49
3. Be My Lover 03:23
4. Elected 03:43
5. No More Mr. Nice Guy 03:08
6. Only Women Bleed 03:32
7. Welcome to My Nightmare 02:48
8. I Never Cry 03:44
9. Clones (We're All) 02:51
10. Eighteen 02:57
******************************
Total playing time: 32:26

Extended info
Warner Bros. Records, Flashback Records R2 78997.CD
Remastered Versions on a budget priced compilation.
Rhino records side label, Flashback Records.


Technical info

Input File: 09 Alice Cooper - Clones (We\'re All).mp3
Channels : 2
Sample Rate : 44100
Precision : 16-bit
Duration : 00:02:51.79 = 7575939 samples = 12884.2 CDDA sectors
File Size : 7.10M
Bit Rate : 331k
Sample Encoding: MPEG audio (layer I, II or III)
Comments :
Title=Clones (We're All)
Artist=Alice Cooper
Album=School's Out and Other Hits (1972-1980)
Tracknumber=9/10
Year=2004
Genre=Rock
Discnumber=1/1



[ Hidden Text ]