Help - Search - Members - Calendar
Full Version: Urthrax - Cantrips (2018)
Metal Area - Extreme Music Portal > Releases Area / Релизы > New Releases > Unformat R:
vosmidesijatye


*Artist: Urthrax
*Album: Cantrips
*Year: 2018
*Genre: Dungeon Synth/Dark Ambient
*Country: United States
*Format: mp3@CBR320kbps
*Size: 64MB

Tracklist:
1. Primal Savagery 04:20
2. Acid Splash 02:55
3. Shocking Grasp 06:32
4. Ghost Sound 04:27
5. Thaumaturgy 06:40
6. Spare the Dying 02:20
******************************
Total playing time: 27:14



Technical info

Input File: Urthrax - Cantrips - 03 Shocking Grasp.mp3
Channels : 2
Sample Rate : 44100
Precision : 16-bit
Duration : 00:06:32.88 = 17325876 samples = 29465.8 CDDA sectors
File Size : 15.9M
Bit Rate : 323k
Sample Encoding: MPEG audio (layer I, II or III)
Comments :
Title=Shocking Grasp
Artist=Urthrax
Album=Cantrips
Tracknumber=3
Year=2018



[ Hidden Text ]
vosmidesijatye
The one and only disappointemt of this magnificent release is an opening track that doesn`t fit well because it`s more noise than dungeon.

But the rest of the album is pure awesomeness 20.gif
This is a "lo-fi" version of our main content. To view the full version with more information, formatting and images, please click here.
Invision Power Board © 2001-2019 Invision Power Services, Inc.