Help - Search - Members - Calendar
Full Version: Aindulmedir - The Lunar Lexicon (2019)
Metal Area - Extreme Music Portal > Releases Area / Релизы > New Releases > Unformat R:
vosmidesijatye


*Artist: Aindulmedir
*Album: The Lunar Lexicon
*Year: 2019
*Genre: Dark Ambient/Dungeon Synth
*Country: Sweden
*Format: mp3@CBR320kbps
*Size: 80MB

Tracklist:
01 - Wind-Bitten
02 - Book Of Towers
03 - The Librarian
04 - Winter And Slumber
05 - The Lunar Lexicon
06 - Snow Above Blue Fire
07 - Sleep-Form
******************************
Total playing time: 36:03

Technical info

Input File: 01 - Wind-Bitten.mp3
Channels : 2
Sample Rate : 44100
Precision : 16-bit
Duration : 00:05:01.46 = 13294430 samples = 22609.6 CDDA sectors
File Size : 12.1M
Bit Rate : 321k
Sample Encoding: MPEG audio (layer I, II or III)
Comments :
Title=Wind-Bitten
Artist=Aindulmedir
Album=The Lunar Lexicon
Tracknumber=01
Year=2019
Genre=Dark Ambient



[ Hidden Text ]
vosmidesijatye
New magnificent project from the man behind Kammarheit.
Diflock
Sangreal
Очень душевная вещь.
Хотелось бы ещё другие его проекты поиметь.
Именно такой эмбиент я люблю.


This is a "lo-fi" version of our main content. To view the full version with more information, formatting and images, please click here.
Invision Power Board © 2001-2019 Invision Power Services, Inc.