Help - Search - Members - Calendar
Full Version: Frosthelm - Pyrrhic (2019)
Metal Area - Extreme Music Portal > Releases Area / Релизы > Archive
necroscum


*Artist: Frosthelm
*Album: Pyrrhic
*Year: 2019
*Genre: Black/Thrash Metal
*Country: United States
*Format: mp3@CBR320kbps
*Size: 90MB

Tracklist:
01. A Gift of Razors
02. Serpentine Embrace
03. The Sorceress
04. Pisslord
05. Immortal Nightfall / A Dreamless Lust
06. Pyrrhic I: Hollow
07. Pyrrhic II: Looming Dusk
******************************
Total playing time: 39:11






Technical info

Input File: 2 - Serpentine Embrace.mp3
Channels : 2
Sample Rate : 44100
Precision : 16-bit
Duration : 00:05:27.15 = 14427271 samples = 24536.2 CDDA sectors
File Size : 13.1M
Bit Rate : 321k
Sample Encoding: MPEG audio (layer I, II or III)
Comments :
Title=Serpentine Embrace
Artist=Frosthelm
Album=Pyrrhic
Tracknumber=2
Year=2019
Genre=Alternative/Indie Rock/Metal
Discnumber=1



[ Hidden Text ]
Andrew
[ Hidden Text ]
dalek
Давно ждал и не зря - этот альбом как минимум не хуже их прошлого опуса.
orloff2000
Thank you very much, but unfortunately the link is no longer available 6.gif
Can anyone help?
Borderline1991
[ Hidden Text ]
This is a "lo-fi" version of our main content. To view the full version with more information, formatting and images, please click here.
Invision Power Board © 2001-2021 Invision Power Services, Inc.