Help - Search - Members - Calendar
Full Version: Toughguy & Born Backwards - Toughguy/Born Backwards [split] (2019)
Metal Area - Extreme Music Portal > Releases Area / Релизы > Archive
necroscum


*Artist: Toughguy & Born Backwards
*Album: Toughguy/Born Backwards [split]
*Year: 2019
*Genre: Goregrind | Grindcore/Goregrind
*Country: Russian Federation | United States
*Format: mp3@CBR320kbps
*Size: 20MB

Tracklist:
Toughguy:
01. Backpack Full Of Shit 01:09
02. Beans For Breakfast Once Again 00:57
03. Goreruption 01:11
04. Masked Toughguy (Haggus Cover) 01:00
Born Backwards:
05. Grotesque Droppings 01:03
06. Kickflip Beheading 00:38
07. Butter Knife Stabbing 01:04
08. I Stubbed My Toe While Aborting Cats 01:01
******************************
Total playing time: 8:03





Technical info

Input File: 02. BEANS FOR BREAKFAST ONCE AGAIN.mp3
Channels : 2
Sample Rate : 44100
Precision : 16-bit
Duration : 00:00:57.58 = 2539146 samples = 4318.28 CDDA sectors
File Size : 2.52M
Bit Rate : 350k
Sample Encoding: MPEG audio (layer I, II or III)
Comments :
Title=BEANS FOR BREAKFAST ONCE AGAIN
Artist=TOUGHGUY
Album=Split w/ Born Backwards
Tracknumber=2
Year=2019



[ Hidden Text ]
Lanceatum
Reupload please.
Lanceatum
Перезалейте, пожалуйста.
Lanceatum
Reupload please.
This is a "lo-fi" version of our main content. To view the full version with more information, formatting and images, please click here.
Invision Power Board © 2001-2020 Invision Power Services, Inc.