Help - Search - Members - Calendar
Full Version: DisasterTheory - Dying Side Of Life (2019)
Metal Area - Extreme Music Portal > Releases Area / Релизы > New Releases > Unformat R:
necroscum


*Artist: DisasterTheory
*Album: Dying Side Of Life
*Year: 2019
*Genre: Alternative Metal
*Country: United States
*Format: mp3@CBR320kbps
*Size: 117MB

Tracklist:
01. Freak Show (Intro)
02. Dying Side Of Life
03. Black Star
04. I’m Your God
05. Stuck In The Middle
06. Get Away
07. When It Turns On You
08. Hyperdrive
09. Let It Rain
10. Never Return
11. Turn This World Around
12. I’ve Fallen Down
13. Patchwork Psychopath
******************************
Total playing time: 50:56



Technical info

Input File: 02. Dying Side Of Life.mp3
Channels : 2
Sample Rate : 44100
Precision : 16-bit
Duration : 00:03:18.68 = 8761568 samples = 14900.6 CDDA sectors
File Size : 8.49M
Bit Rate : 342k
Sample Encoding: MPEG audio (layer I, II or III)
Comments :
Title=Dying Side Of Life
Artist=DisasterTheory
Album=Dying Side Of Life
Tracknumber=2/13
Year=2019



[ Hidden Text ]
AHBAnep

Прогрессивная альтернатива вульгарис.
Yarri
Прогрессива не услышал. Alternative Metalcore.
This is a "lo-fi" version of our main content. To view the full version with more information, formatting and images, please click here.
Invision Power Board © 2001-2019 Invision Power Services, Inc.