Help - Search - Members - Calendar
Full Version: Greta - No Biting (1993)
Metal Area - Extreme Music Portal > Releases Area / Релизы > New Releases > Unformat R:
Селезнёв


*Artist: Greta
*Album: No Biting
*Year: 1993
*Genre: Alternative Rock/Metal With Grunge Influences
*Country: United States
*Format: mp3@VBR263kbps
*Size: 86MB

Tracklist:
1 Is It What You Wanted 4:07
2 School On Fire 2:49
3 Off The Slug 3:24
4 Jesus Crux 4:53
5 Fathom 4:33
6 Love Is Dead 3:18
7 Revolver 3:49
8 Nature 5:48
9 Dirtbag 3:40
10 Insomnia 1:47
11 Sleepyhead 3:56
******************************
Total playing time: 42:05



Technical info

Input File: 01. Is It What You Wanted.mp3
Channels : 2
Sample Rate : 44100
Precision : 16-bit
Duration : 00:04:07.04 = 10894464 samples = 18528 CDDA sectors
File Size : 8.81M
Bit Rate : 285k
Sample Encoding: MPEG audio (layer I, II or III)
Comments :
Title=Is It What You Wanted
Artist=Greta
Album=No Biting
Tracknumber=1/11
Year=1993
Genre=Rock



[ Hidden Text ]
Bruce
Жаль в Украине с этого [мат->бан]го ядиска ничего не скачаешь mad_ani.gif
Селезнёв
ЦИТАТА(Bruce @ May 22 2019, 21:53:44) *
Жаль в Украине с этого [мат->бан]го ядиска ничего не скачаешь mad_ani.gif

Пиши, куда перезалить - сделаю
Bruce
Селезнёв
Да все остальные подходят, медиафайер, сампо. Буду благодарен, превьюшка доставила. Вчера полез за ними сразу на рутрекер а там их нет nyyy.gif
Селезнёв
ЦИТАТА(Bruce @ May 23 2019, 21:57:01) *
Селезнёв
Да все остальные подходят, медиафайер, сампо. Буду благодарен, превьюшка доставила. Вчера полез за ними сразу на рутрекер а там их нет nyyy.gif

Ок, вот медиафайер, те же параметры
КОД
http://www.mediafire.com/file/9a96piqs192ulgo/Gret93a.rar/file


А на рутрекере, как знать, может и появится когда-нибудь даже и лось, группа-то не совсем чтобы на 100% неизвестная: вот эта песня, что в превьюшке, в одной из серий "Бивиса и Баттхеда", к примеру, звучала smile1.gif
This is a "lo-fi" version of our main content. To view the full version with more information, formatting and images, please click here.
Invision Power Board © 2001-2020 Invision Power Services, Inc.