Help - Search - Members - Calendar
Full Version: ZZ Top - Eliminator (1983)
Metal Area - Extreme Music Portal > Releases Area / Релизы > New Releases > Unformat R:
vosmidesijatye


*Artist: ZZ Top
*Album: Eliminator
*Year: 1983
*Genre: Blues Rock
*Country: United States
*Format: mp3@CBR320kbps
*Size: 103MB

Tracklist:
01. Gimme All You Lovin
02. Got Me Under Pressure
03. Sharp Dressed Man
04. I Need You Tonight
05. I Got The Six
06. Legs
07. Thug
08. TV Dinners
09. Dirty Dog
10. If I Could Only Flag Her Down
11. Bad Girl
******************************
Total playing time: 44:51



Technical info

Input File: 01. Gimme All You Lovin.mp3
Channels : 2
Sample Rate : 44100
Precision : 16-bit
Duration : 00:03:58.00 = 10495800 samples = 17850 CDDA sectors
File Size : 9.56M
Bit Rate : 321k
Sample Encoding: MPEG audio (layer I, II or III)
Comments :
Title=Gimme All Your Lovin'
Artist=ZZ Top
Album=Eliminator
Tracknumber=01/11
Year=1983
Genre=Hard Rock



[ Hidden Text ]
vam1972
А чЁ энто в формате? К формату здесь столько же отношения, сколько в работах Lynyrd Skynyrd.
vosmidesijatye
Альбом забит хитами мирового масштаба metaler.gif 9.gif banana.gif pray.gif
max_stalingradsky
1 и 3 любимые вещи из тута smile1.gif
vosmidesijatye
ЦИТАТА(max_stalingradsky @ Jun 17 2019, 13:10:33) *
1 и 3 любимые вещи из тута smile1.gif


Еще бы, сочнейшие хитцы назвал, ещё бы они не нравились crazy.gif
vosmidesijatye
Один из лучших их альбомов.

Всякие брутал дэты и грайнды курят в сторонке вместе с фолками, паганами 15.gif
Anger
вот, по-моему, на первый трек когда-то давно на кассете я видел клип. там была заправка, пустынная дорога. такой классический американский стиль. ну и чуваки, тёлки разные как всегда

в общем, там и узнал про них

дерево, памятник, мужик в пиджаке 15.gif
vosmidesijatye
ЦИТАТА(Anger @ Jul 11 2019, 20:09:10) *
в общем, там и узнал про них


В конце 90-х, в небольшом притулившемся у рынка лотке выкупил бест оф на 17 трэков. Хоть хитцов громобойных там было не так много, но полюбил группу уже с того момента.

Такая музыка качает и радует всю жизнь. 25.gif

От нее не устанешь, она не надоест как дэт, трэш какой нибудь. 25.gif
hammer
ЦИТАТА(vosmidesijatye @ Jun 19 2019, 21:31:53) *
Всякие брутал дэты и грайнды курят в сторонке вместе с фолками, паганами 15.gif

Ну за чем сравнивать писю с пальцем?Каждая музыка хороша под настроение.

Этот все же заберу...
vosmidesijatye
ЦИТАТА(hammer @ Jul 16 2019, 17:20:54) *
Этот все же заберу...


Забирай первые 4, как я тебе советовал.

Здесь более TV подход, в остальных альбомах более тру.

Получится полная ретроспектива, а так - будет не то, смазанное впечатление.
vosmidesijatye
Лепс за барабанами, Полина Гагарина, Дима Билан и Леонид Агутин с песней «Gimme All Your Lovin’» crazy.gif headcrab.png 25.gif

babanguida
QUOTE(vosmidesijatye @ Jul 18 2019, 22:53:26) *
Лепс за барабанами, Полина Гагарина, Дима Билан и Леонид Агутин с песней «Gimme All Your Lovin’» crazy.gif headcrab.png 25.gif


At least she knows how to say "yeah".
Anger
ЦИТАТА(vosmidesijatye @ Jul 18 2019, 21:53:26) *
Лепс за барабанами, Полина Гагарина, Дима Билан и Леонид Агутин с песней «Gimme All Your Lovin’» crazy.gif headcrab.png 25.gif



убери это позорище отсюда
babanguida
The 2008 remastered version is not bad too.
This is a "lo-fi" version of our main content. To view the full version with more information, formatting and images, please click here.
Invision Power Board © 2001-2019 Invision Power Services, Inc.