Help - Search - Members - Calendar
Full Version: Yes - Tales From Topographic Oceans (1973)
Metal Area - Extreme Music Portal > Releases Area / Релизы > New Releases > Unformat R:
vosmidesijatye


*Artist: Yes
*Album: Tales From Topographic Oceans
*Year: 1973
*Genre: Progressive Rock
*Country: United Kingdom
*Format: mp3@CBR320kbps
*Size: 208MB

Tracklist:
CD1:

1. The Revealing Science Of God / Dance Of The Dawn 20:23
2. The Remembering / High The Memory 20:33

CD2:

1. 'The Ancient' / Giants Under The Sun 18:32
2. Ritual / Nous Sommes Du Soleil 21:31
******************************
Total playing time: 1:20:59



Technical info

Input File: 01. The Revealing Science Of God - Dance Of The Dawn.mp3
Channels : 2
Sample Rate : 44100
Precision : 16-bit
Duration : 00:20:23.62 = 53961642 samples = 91771.5 CDDA sectors
File Size : 49.0M
Bit Rate : 320k
Sample Encoding: MPEG audio (layer I, II or III)
Comments :
Title=The Revealing Science Of God / Dance Of The Dawn
Artist=Yes
Album=Tales From Topographic Oceans CD1
Tracknumber=1/2
Year=1973
Genre=Progressive Rock



[ Hidden Text ]
vosmidesijatye
Богоподобный релиз.
adeptus_custodes
Йес в расцвете сил, да. Хотя мне Relayer больше нравится.
vosmidesijatye
ЦИТАТА(adeptus_custodes @ Jun 20 2019, 02:12:58) *
Йес в расцвете сил, да. Хотя мне Relayer больше нравится.


В топовых работах у них тоже, да.
Ghostb
Слабейший релиз периода 71-74 гг., на мой взгляд. Да и та же Drama нравится больше.
vosmidesijatye
ЦИТАТА(Ghostb @ Jun 25 2019, 21:35:07) *
Слабейший релиз периода 71-74 гг., на мой взгляд. Да и та же Drama нравится больше.


Категорически не шаришь 25.gif
Snowblind
ЦИТАТА(Ghostb @ Jun 25 2019, 20:35:07) *
Слабейший релиз периода 71-74 гг.

Однозначно, альбом по-хорошему нужно было безжалостно чистить и оставлять где-то половину. Для меня он слабее почти всего вышедшего в 70-87, хотя там жанровая стилистика прыгала нехило. Плюс, мощнейший Магнификейшн, стоящий вровеь с лучшими классическими работы команды.
Ghostb
ЦИТАТА(vosmidesijatye @ Jun 25 2019, 20:41:16) *
Категорически не шаришь

Скучный и затянутый альбом. А все из-за концепции.

ЦИТАТА(Snowblind @ Jun 25 2019, 20:44:04) *
Однозначно, альбом по-хорошему нужно было безжалостно чистить и оставлять где-то половину

+
This is a "lo-fi" version of our main content. To view the full version with more information, formatting and images, please click here.
Invision Power Board © 2001-2019 Invision Power Services, Inc.