Help - Search - Members - Calendar
Full Version: Moon Far Away - Athanor Eurasia (Luxus) (2019)
Metal Area - Extreme Music Portal > Releases Area / Релизы > New Releases > Unformat R:
Old Vyaine


*Artist: Moon Far Away
*Album: Athanor Eurasia (Luxus)
*Year: 2019
*Genre: Neofolk/Dark Folk
*Country: Russian Federation
*Format: mp3@CBR320kbps
*Size: 202MB

Tracklist:
1. The Song Of The Five Lakes Watermill 04:17
2. The Blank Flag Of The Europe 04:59
3. Napadi, Rosa 04:58
4. Polia Vy, Polia 05:20
5. Lubila Menja Mat, Obozhala 04:57
6. Dva Lazyrja 08:15
7. The Blueberry song 06:59
8. Intersymbolism 03:47
9. Ostavaisja Bely, Knjaz 02:18
10. Celebrate! 05:45
11. Steel Light Love (single version) 03:56
12. Velichalnaya 03:49
13. Chitin 05:08
14. Napadi, Rosa (Single Version) 04:58
15. Rose In Hell 04:13
16. Celebrate! (single version) 04:28
17. An Invisible Step Of World History 04:25
******************************
Total playing time: 1:22:32



Extended info
Moon Far Away - A Folkloristic Marriage of East and West

Since their foundation in 1994, Moon Far Away, hailing from Arkhangelsk, Russia, have developed a unique style out of the established neo-folk tropes of the western world and the musical heritage of their home turf - the Russian North; a hotbed within the country for literature, visual arts, architecture and, of course, music. With influences as diverse as their background, they engaged in neoclassical dark wave and world music on earlier releases, and have remained a relatively unknown gemstone until this day. In the meantime, the group has honed its colorful blend to quasi-perfection, which is more than evident on its fifth record and Auerbach Tonträger/Prophecy Productions debut, "Athanor Eurasia".

While deftly weaving together acoustic guitars and wind instruments, as well as both female and male voices, this new album is a neo-folk release of outstanding quality with the traditional song format always in focus. In part, the result harks back to the likes of Death In June, Forseti or Sol Invictus (whose Tony Wakeford appears as a guest on 'Celebrate!') whereas other tracks are adaptions of passed-down Northern Russian folk tunes the band collected on expeditions to the Arkhangelsk Oblast - the musicians' subarctic home region. Within this dense tapestry all threads, regardless of their geographical or cultural origin, make up a unified whole that defies categorization.

Thus, "Athanor Eurasia" venerates the tradition of shared space both conceptually and musically. "It is not about country borders or maps, emigrants or geopolitics", stresses Count Ash, the group's masked leader. "We like to think of "Athanor Eurasia" as the first album of Eurasian neo-folk in that it is based on the canons outlined in the West, yet enriched with the ideas and sentiments born in the East. This is how we have been living and creating for many years, feeling complete creative freedom and sharing the fruits of this freedom with others."

Count Ash concludes with Moon Far Away's approach on music: "Creating something that is new in form while adhering to the ancient spiritual tradition is the only way for a culture to exist in time. It is the alchemy of creative process, which, through the use of only the purest, but singularly opposite ingredients, gives birth to something new. And inside that furnace, which continues to cast new meanings and symbols, the flame is still burning …"

"Athanor Eurasia" is available as Digipak CD, gatefold LP and 2CD book edition (hardcover, 18x18cm, 36 pages with in-depth liner notes in English, enhanced artwork and 7 bonus tracks with a playing time of more than 30 minutes). Together with the album, Auerbach Tonträger release "Zhito Zhala: The Early Harvest 1997-2010", a 5CD artbook comprised of Moon Far Away's early albums from 1997 to 2010.

Buy at our shop here:

worldwide: en.prophecy.de/artists/moon-far-away
US/Canada: us.prophecy.de/artists/moon-far-away
credits
released June 28, 2019

Честно куплено на БК.


Technical info

Input File: Moon Far Away - Athanor Eurasia (Luxus) - 02 The Blank Flag Of The Europe.mp3
Channels : 2
Sample Rate : 44100
Precision : 16-bit
Duration : 00:04:59.09 = 13189957 samples = 22431.9 CDDA sectors
File Size : 12.1M
Bit Rate : 325k
Sample Encoding: MPEG audio (layer I, II or III)
Comments :
Title=The Blank Flag Of The Europe
Artist=Moon Far Away
Album=Athanor Eurasia (Luxus)
Tracknumber=2/17
Year=2019
Genre=Neofolk/Dark Folk



[ Hidden Text ]
Krosis
Началось за здравие, по канону дарк фолка, а потом опять одни песни бабушек на деревне. no thanx 21.gif
Arseniy
ЦИТАТА(Krosis @ 1st July 2019 - 08:35:00) *
опять одни песни бабушек на деревне

Это же прекрасно. Буквально вот вчера был в Витославлицах, вот даже жаль, что альбом начал слушать только сегодня — он прекрасно ложится на то, что видел там.
Old Vyaine
Я даже не знаю, что мне здесь больше по нраву:

песни
QUOTE(Krosis @ 1st July 2019 - 08:35:00) *
по канону дарк фолка


или же

QUOTE(Krosis @ 1st July 2019 - 08:35:00) *
песни бабушек на деревне.


Кстати, концовка альбома тоже вполне себе канонична для дф.
Wizard_in_Black
Очень интересный альбом, самобытность музыки Moon Far Away всегда цепляет и запоминается.
Последнее и очень годное что я от них слышал это когда вокалист пел на альбоме белоруского проекта Erde про "горе великое"....
comradEnemy
ЦИТАТА(Krosis @ Jul 1 2019, 08:35:00) *
Началось за здравие, по канону дарк фолка, а потом опять одни песни бабушек на деревне. no thanx 21.gif

Так про это и написано в пресс-релизе, только высокопарно: алхимический союз вашего и нашего
6666666
Оставлю зарубку.
Arseniy
ЦИТАТА(6666666 @ Jul 4 2019, 15:03:12) *
Оставлю зарубку.

Уходи, здесь тебе нечего ловить.
6666666
Скачал, спасибо.
folker
ЦИТАТА(6666666 @ Jul 5 2019, 00:12:45) *
Скачал, спасибо.


ну, и как? заценил-проникся?smile1.gif
abob
Здорово, что выпустили новый альбом, но что касается содержимого, то тут скорее нет, чем да.

Клип еще есть:

6666666
ЦИТАТА(folker @ 20th September 2019 - 01:41:35) *
ну, и как? заценил-проникся?

Есть, что ловить.
This is a "lo-fi" version of our main content. To view the full version with more information, formatting and images, please click here.
Invision Power Board © 2001-2020 Invision Power Services, Inc.